アットウィキロゴ

Re:Unknown X

アーティスト まらしぃ

BPM BASIC ADVANCED EXPERT MASTER Re:MASTER
190 6 9 12 14+ -

EXPERT MASTER Re:MASTER
譜面制作者 鳩ホルダー アミノハバキリ -

BASIC


ADVANCED


EXPERT


MASTER

(190)
{4},,,{8},{24}5,4,3,2x<5[2:3],,,{4},,{1},{6},{16},3,4,{48},{1}3h[1:1],7h[8:7],
{8}4hx[1:3]/6hx[4:1],,,6h[4:1],,,6h[4:1],,,6h[4:1],,,{4}6,7,
{8}6h[4:1],,,6h[4:1],,,6h[4:1],,,6h[4:1],{4}4h[4:1],5h[4:1],3,
{2}4hx[4:1]/6hx[4:1],4hx[4:1]/6hx[4:1],{8}4hx[4:1]/6hx[4:1],,,4hx[4:1]/6hx[4:1],,,{16}4x,5,4,5,
{2}4hx[4:1],3hx[4:1]/5hx[4:1],{4}3x/5x,3x/5x,{64}A2,D3,A3,D4,A4,D5,A5,D6,A6,D7,A7,D8,A8,D1,A1,D2,{4}Cf,

2x-5[8:1],27,{8}6h[4:1],{24}8,1,2,3,,,{8}7h[4:1],{24}1,2,3,4,,,{8}8h[4:1],{24}2,3,4,5,,,{8}1,{4}12,
2-6[8:1],28,{8}57,46,,6,6,5,4,3,{16}2,1,2,1,{4}2,
7x-4[8:1],72,{8}3h[4:1],{24}1,8,7,6,,,{8}2h[4:1],{24}8,7,6,5,,,{8}1h[4:1],{24}7,6,5,4,,,{8}8,{4}87,
7x-3[8:1],71,{8}42,53,,3,3,4,5,6,{8}7h[4:1],{32}8,1,2,3,{4}4,

1x-5[8:1],17,{8}6h[4:1],{24}8,1,2,3,,,{8}7h[4:1],{24}1,2,3,4,,,{8}8h[4:1],{24}2,3,4,5,,,{8}1,{4}12,
2-6[8:1],28,{8}8h[4:1],{24}1,2,3,4,,,{8}6,6,5,4,3,{16}2,1,2,1,{4}2,
8x-4[8:1],18,{8}3h[4:1],{24}1,8,7,6,,,{8}2h[4:1],{24}8,7,6,5,,,{8}1h[4:1],{24}7,6,5,4,,,{8}8,{4}87,
7x-3[8:1],71,{8}1h[4:1],{24}8,7,6,5,,,{8}3,3,4,5,6,{8}7h[4:1],{32}8,1,2,3,{4}4,

{8}5bx/6bx,4,7,3,17,6,1,2,34,5,3,{4}24,1-6[8:1]/3-6[8:1],13,
{8}4,6,4,35,2,7,8,1x/7x,{16},2x,{8}1-6[8:1],3x,1x/4x,,3,4,
25,3,4,3,12,8,3,7,56,4,6,{4}57,8-3[8:1]/6-3[8:1],86,
{8}2,3,4,52,3,{16}5,4,5,4,3hx[8:1]/6hx[8:1],,,2hx[8:1]/7hx[8:1],,,{8}1x/8x,2x/7x,6,5,4,

{4}3^8[8:1],C,6^1[8:1],C,2^5[8:1],C,7^4[8:1],C,1^4[8:1],C,5<1[8:1],C,3>4[8:3],{2},
{8}6,5,43,2,5,6,35,2,5,6,78,6,5,{4}43,1-6[8:1]/2-5[8:1],12,
{8}7,4,6,53,6,{16}4,5,4,5,4hx[8:1],,,3hx[8:1]/5hx[8:1],,,{8}2x/6x,{4}1x/7x,2b/6b,

7x/8x-4[8:1],68,{8}3,{24}31,8,7,6,,,{8}2,{24}28,7,6,5,,,{8}1,{24}17,6,5,4,,,{8}8,{4}78,
2/1-5[8:1],31,{8}6,{24}61,2,3,4,,,{8}7,4,4,5,6,{24}7,8,7,8,7,8,{4}7,
2/1-5[8:1],31,{8}6,{24}68,1,2,3,,,{8}7,{24}71,2,3,4,,,{8}8,{24}82,3,4,5,,,{8}1,{4}21,
7/8-4[8:1],68,{8}3,{24}38,7,6,5,,,{8}2,5,5,4,3,{8}2h[4:1],{32}4,5,6,7,{4}8,

{8}1bx/2bx,8,3,4,56,4,6,5,43,2,4,{4}56,8-4[8:1]/7-3[8:1],87,
{8}5,4,5,36,4,6,5,4x/3x,{16},2x,{8}1-5[8:1],3x,1x/4x,,7,6,
35,2,4,3,12,8,1,2,45,3,5,{4}34,1-5[8:1]/2-6[8:1],12,
{8}4,6,4,35,6,{16}4,5,4,5,4hx[8:1],,,3hx[8:1]/5hx[8:1],,,{8}2x/6x,
1hx[4:1]/7x,{64}D8,A7,D7,A6,D6,A5,D5,A4,{4}D4,

{2}3hx[4:1]/5xv7[8:1],1h[4:1]/8v2[8:1],3h[4:1]/5v8[8:1],7h[4:1]/1v3[8:1],
1h[4:1]/5V71[8:1],8h[4:1]/2V46[8:1],5h[4:1]/7>5[8:3],{8},,6,5,
34,5,3,5,24,6,3,4,56,7,6,{4}54,2-4[8:1]/7-5[8:1],27,
{8}6,3,5,46,3,{16}5,4,5,4,5hx[8:1]/7hx[8:1],,,2hx[8:1]/4hx[8:1],,,{8}6x/3x,4x/5x,{16}3,6,2,7,1,8,

{4},,1,{8}8,{32},,E2,B2,{4}B3/7h[1:7],,,{8},{32},,E3,B3,{4}B4,,,{8},{32},,B6,B5,{4}E5,,,{8},{32},,B6,B7,
{1}E8,{4}B2/B3,,,{8},{32},,B4,B3,{1}E3,E5,{8}6,5,4,3,2,3,4,5,
{4}4h[2:1],5,6h[2:1],{8}5,{32},,4,3,{4}2h[2:1],7,8h[2:1],{8}1,{32},,2,3,
{4}4h[2:1],7,6h[2:1],{8}2,{32},,3,4,{4}5h[4:3],6,7,{8}8,1hx[8:5]/3x,{4},4,3h[2:1],2,
4,35,26,17,{8}8b,2b/6b,3b/5b,,27,8/1-5[8:1],,1,{16}8x,7,6,2x,3,4,8x,7,6,2x,3,4,{4}5bx/7bx,

{16}6x,4,6,4,5,2,5,2,8x,7,6,5,8,1,2,3,7x,5,7,5,6,3,6,3,7x,6,5,4,1,2,3,4,
6x,5,7,4,8,3,1,2,8x,7,6,5,8,7,6,5,{24}1x,8,7,6,5,4,2,1,8,7,6,5,3,2,1,8,7,6,{8}5,3x/4x,
{16},6,5,6,4,7,4,7,2x,3,4,5,8,7,6,5,1x,2,3,4,5x/1x,8,7,6,5x/1x,2,3,4,5x/1x,8,7,6,
{24}1x,2,3,7x,6,5,1x,2,3,7,6,5,2,3,4,8x,7,6,2,3,4,8x,7,6,{16}2x,1,2,1,2,1,2,1,2,1,8,7,{4}6b/4b,

{16}7x,4,7,4,6,3,6,3,8x,7,6,5,8,1,2,3,6x,4,6,4,5,2,5,2,7x,6,5,4,1,2,3,4,
6x,5,7,4,8,3,1,2,8x,7,6,5,8,7,6,5,{24}7x,6,5,8,7,6,1,8,7,2,1,8,3,2,1,8,7,6,{8}5,3x/4x,
{16}71,2,3,4,51,2,3,4,5x/1x,2,3,4,51,8,7,6,
{32}1x,2,3,4,1,8,7,6,1x,2,3,4,8,7,6,5,8x,1,2,3,8,7,6,5,8x,1,2,3,8,7,6,5,
{8}4b,1b/7b,3b/5b,,18,36,,45,{16}6x,5,4,3x,4,5,6x,5,4,3x,4,5,6x,5,4,3,

{4}2x-6[8:1]/8x-4[8:1],28,{8}37,{24}37,6,5,4,,,{8}28,{24}28,7,6,5,,,{8}12,{24}12,8,7,6,,,{8}34,{4}34,
3x-7[8:1]/1x-5[8:1],31,{8}46,{24}46,7,8,1,,,{8}3,4,53,26,17,8h[4:1],{32}1,2,3,4,{4}5,
7x-3[8:1]/1x-5[8:1],71,{8}62,{24}62,3,4,5,,,{8}71,{24}71,2,3,4,,,{8}87,{24}87,1,2,3,,,{8}65,{4}65,
6x-2[8:1]/8x-4[8:1],68,{8}53,{24}53,2,1,8,,,{8}6,34,16,25,78,1x/6x,,

{24}8,7,8,7,8,7,8,7,8,7,8,7,8,7,8,7,8,7,8,7,8,7,8,7,8,7,8,7,8,7,
{4}8h[4:1],{24}1,2,3,4,5,6,8,1,2,3,4,5,7,8,1,2,3,4,{2},8b,
{8}1x/7hx[8:4],,,{24}2,3,4,5,6,7,8,1,2,3,4,5,6,7,8,{32}A7/A1,B7/B1,Cf,B5/B3,{1}A5/A3,,,,E

Re:MASTER


  • 追加しました。修正等ありましたらよろしくお願いします。 -- けもがみ (2024-06-08 20:39:16)
名前:
コメント:

タグ:

+ タグ編集
  • タグ:
最終更新:2026年04月09日 19:28