BASIC
ADVANCED
EXPERT
(180){8}
75,,,42,,,81,,1,2,3,4,5,6,7h[4:1],,
5,,43,,65,,2/4<3[2:1],,Cf,,,,,,1bx,,
2-5[8:1],,6,,8h[4:1],,5,5,7-4[8:1],,3,,1h[4:1],,4,4,
2-5[8:1],,6,,7h[4:1],,8,8,6-3[8:1],,2,,1-6[8:1]*-4[8:1],,,,
7bx-4[8:1],,3,,1h[4:1],,4,4,2-5[8:1],,6,,8h[4:1],,5,5,
7-4[8:1],,3,,2,,51,,5^8[4:1]/1^4[4:1],,,,,,8b/4b,,
{4}75,E1f,43,E2,42,E1,65,E8,13,E5f,78,E6,68,E5,12,E4,
{8}7,5,E1f,,3,4,E2,,2,4,E1,,6,5,E8,,2,8,E5f,,7,8,E6,,7,7,4,4,5,5,2>1[2:3],,
{1}8bh[1:7],,E5,E3,E1,E7,B5/B4/Chf[1:1],,
{8}7b/8b,,75,,65,,43,,1b/2b,,42,,53,5b/3b,,6x,
7b/8b,,75,,65,,43,,1b/2b,,42,,7b-5[8:1]/8b-4[8:1],7b/8b,,,
3b,3,3,3,6b/4b,4,4,4,5b/2b,2,2,2,8b/3b,8,8,8,
1b,1,7b,7,2b,2,8b,8,8-4[8:1]b/1-5[8:1]b,,,,63,72,8b/1b,,
7-3[8:1],7,2-8[8:1],2,5,,6,6,2-6[8:1],2,7-1[8:1],7,4,,3,3,
7-3[8:1],7,2-5[8:1],2,1,,8,8,7-3[8:1],7,2-8[8:1],2,5,,6,6,
2-6[8:1],2,7-4[8:1],7,8,,1,1,7-3[8:1],7,2-5[8:1],2,1,,8,8,
2-6[8:1],2,7-4[8:1],7,8,,1,1,7-3[8:1],7,2-5[8:1],2,1,,6b,,
{16}51,,2,,2,4,,4,3,,,,65,,,,84,,7,,7,5,,5,6,,,,43,,,,
51,,2,,2,4,,4,3,,,,65,,,,84,,7,,7,5,,5,6,,,,53,,,,
62,,7,,7,1,,1,8,,,,12,,,,73,,2,,2,8,,8,1,,,,78,,,,
62,,7,,7,1,,1,8,,,,12,,,,73,,2,,2,8,,8,1-5[8:1],,,,7b,,,,
{8}6bh[4:1]/8bh[4:1],,,1b/3b,,54,6b/3b,,
81,81,72,72,63,,7b/2b,,
{16}81,,2,,2,4,,4,5,,5,7,,7,8,,
81,,7,,7,5,,5,4,,4,2,,2,1,,
81,,2,,2,4,,4,5,,5,7,,7,8,,
81,,7,,7,5,,5,4,,4,2,,2,4,,
53,,6,,6,8,,8,1,,1,3,,3,5,,
64,,3,,3,1,,1,8,,8,6,,6,4,,
53,,6,,6,8,,8,1,,1,3,,3,5,,
64,,3,,3,1,,1,8,,8,6,,6,4,,
53,,2,,2,4,,4,5,,5,7,,7,8,,
81,,7,,7,5,,5,4,,4,2,,2,4,,
53,,6,,6,8,,8,1,,1,3,,3,5,,
64,,3,,3,1,,1,8,,8,6,,6,4,,
{8}53,6,7,8,1,2,3>5[2:1],,Cf,,,,,,8bh[4:1],,
{4}6-1[8:1],4-7[8:1],2-5[8:1],8-3[8:1],6-1[8:1],4-7[8:1],2-5[8:1],8-3[8:1],
6-1[8:1],4-7[8:1],2-5[8:1],8-3[8:1],6-1[8:1],4-7[8:1],2,1h[4:1],
3-8[8:1],5-2[8:1],7-4[8:1],1-6[8:1],3-8[8:1],5-2[8:1],7-4[8:1],1-6[8:1],
3-8[8:1],5-2[8:1],7-4[8:1],1-6[8:1],3-8[8:1],5-2[8:1],7,6,
{16}4b/2b,,1,,1,3,,3,1,,1,8,,8,6,,
75,,8,,8,6,,6,8,,8,1,,1,3,,
42,,1,,1,3,,3,1,,1,8,,8,6,,
75,,8,,8,6,,6,8,,8,1,,1,3,,
42,,5,,5,7,,7,5,,5,4,,4,2,,
51,,4,,4,2,,2,4,,4,5,,5,7,,
{8}84,84,75,75,42,42,1-5[8:1],1,
8-6[8:1],8,2-4[8:1],2,8x,,8b-5[8:1]/1b-4[8:1],,
E
MASTER
(180)
{8}4bx,5/3-6[8:1],,7bhx[8:3],,,5x,,6,6,5,5,4h[8:1]/6h[8:1],,{16}3,5,3,5,
{4}3h[8:1],2h[8:1]/4h[8:1],3h[8:1]/5h[8:1],{16}6-3^5-8[2:1],4,6,4,{2}6x,{8},1x,2bx/8bx,,
3-8[8:1]/7-5[8:1],37,,,1,2,5,6,7-1[8:1],7,5,4,8,7,6h[8:1]/1h[8:1],,
{16}3,4,3,,2h[8:1],,1,,7,8,7,,{8}6h[8:1],5,4,3,5,6,3-5[8:1]/7-3[8:1],37,,,
8hb[4:1],,5,4,35,6,47,3,5pp4[16:5],5,4,,3h[4:1],,{16}4x,2x,4x,2x,
{8}5-7[8:1],5,1,2,8-2[8:1],8,{4}4h[4:1],Ch[2:1],,,1b/8b,
{8}7^4[8:1],7,1,1,{16}3,4,3,,7,,56,,3,4,3,,6,,57,,2,8,2,8,{4}1b,
{16}6,5,6,,2,,34,,6,5,6,,{8}1,28,6-1[8:1],6,2-5[8:1],2,8,8,1x/7x,,
34,2,{16}7,8,7,,{8}1-5[8:1],1,7^4[8:1],7,3,2,{16}7,8,7,,1,,3,,7,5,7,5,
{8}6-4[8:1],6,2-6[8:1],2,8^5[8:1],8,3,3,24,35,{16}6,5,,5,,7,8,,{4}2b/6b<5[1:2],{1}Cf,,,,
{2}4-2[4:1],6-4[4:1],8-6[4:1],2-8[4:1],{4}6h[4:1],5h[4:1],4h[4:1],3h[4:1],
{8}4,35,{16}6,5,,3xq5[16:5]/7x,{2},{4}6x-2V84[4:3],5,4,3,2hx[4:1],1,{8}78,1b/6b,,3/4x,
{4}3-7V15[4:3]/4x,4,5,6,7hx[4:1],8,{8}1x-5[8:1],1x,8b,,
4/6x,6,6,6,5/3x,3,3,3,2/8x,8,8/4x,8,7/1x,1,1/5x,1,
{16}2,4,2,4,3,5,3,5,4,6,4,6,5p4[2:1],7,5,7,{2}5x,{8},8,2b/6b,,
34,2,1/7h[16:3],{16},5,,5,6,,3,4,2,,56,,7,,8/2h[16:3],,,4,,4,3,,25,,1,,
78,,6,,5/3h[16:3],,,4,,2,1,,7,8,7,,21,,3,,4/6h[16:3],,,5,,7,8,,{4}1x/6x,
4bh[8:1]/7bh[8:1],{16}6,5,,47,,2,1,,7,8,7,,{4}5bh[8:1]/2bh[8:1],{16}3,4,,52,,7,8,,2,1,2,,
{8}4b/8b,4,6-1[8:1],6,2b-5[8:1],2,7,7,8b-4[8:1],17,8,{16},3x/5x,,2,1,,3b/8b,,3b/8b,,
2x/6x,,7h[8:1],,1,8,,26,,3,4,,6,5,7,,34,,2h[8:1],,8,1,,73,,6,4,,38,,38,,
12,,3h[8:1],,5,4,,25,,7,8,,2,1,3,,87,,6h[8:1],,4,5,,74,,2,1,,{8}3x/8x,,
2b/5b,25,{16}3,4,,25,,7,8,,2,1,3,,7b/4b,,74,,6,5,,74,,2,1,,7,8,6,,
{8}1b/5b,15,26,37,48,{24}1,8,7,6x,,,8,1,2,{2}3x>4[8:3],{8},8,2x/6x,,
3b/4b,2x^5[8:1]/5x,,2b/8b-4-8[4:1]b,,3x,3b,,1,1,28,28,3v8[8:1]b/7-4[8:1]b,48,E4/E8f,,
1x,1,{16}3,4,,56,,7,8,6,1,5,2,4,3,,12,,7,8,,56,,3,4,2,5,1,6,8,
7,,16,,3,4,,28,,6,5,7,4,6,3,5,2,,83,,6,5,,71,,3,4,2,5,3,6,4,
7,,7,,2,1h[8:1],,3,8-4[8:1],3,8,3,{4}8b,{16}3,,25,,7,8h[8:1],,6,1,6,1,6,{4}2b/5b,
{8}3-5[8:1],5,3,6,7-1[8:1],4,7,2,3-8[8:1],4,3,6,7,7,{16}1,8,1,8,
{8}2V48[4:1],2,7,6,5V73[4:1],5,3,2,1^7[8:1],4,1^3[8:1],5,1,6,4b/8b,,
57,4,57,3,56,2,56,1,34,8,34,7,24,6,24,5,
{16}3,5,3,5,2,6,2,6,1,7,1,7,8x,8x,8x,8x,{2}8-5[16:3]b*z4[16:3]b,{8},4x/5x,27,,
2-5[8:1]/7-4[8:1],{16}1x/8x,1x/8x,{4}2bx/7bx,{16}2h[16:3]/7,,,4,3,,6,,
57,,4,,12,,8,,7,5,7,5,6,,3,,24,,1,,78,,5,,3h[16:3],,,4,2,,2,,
15,,6,,7,8,7,,46,,2,1,2,,{8}35,2-6[8:1]/6,26,8b,,{16}1/7h[16:3],,,5,6,,3,,
24,,5,,78,,1,,6,,57,,2,4,2,4,3,,8,,12,,4,,6h[16:3],,,5,7,,7,,
2,1,2,,7,8,7,,3bh[8:1]/4bh[8:1],,,6bh[8:1]/7bh[8:1],,,1b/2b,,
3/8-4[8:1],,38,,2-5[8:1],,2,,7,,7,6,,3,4,,1-5[8:1]/6,,16,,8,,8,,7,5,7,5,6,,2,,
34,,15,,6,8h[8:1],,7,1h[8:1],,8,2h[8:1],,1,3,,56,,48,,3,1h[8:1],,2,8h[8:1],,1,7h[8:1],,8,6,,
12,,37,,6,5,7,,2-6[8:1],1,2,1,2,,7,,78,,26,,3,4,2,,78,,12,,7-3[8:1],8,7,8,
{8}7,2,18,7,4x/5x,{24}1b/2b,3,4,5x,,,8b/7b,6,5,{4}4x>5[2:1],,,8b-4[8:1],{1}Cf,,,,E
Re:MASTER
- 追加しました。修正等ありましたらよろしくお願いします。 -- けもがみ (2024-06-09 20:25:28)
最終更新:2026年02月15日 17:21