BASIC
ADVANCED
EXPERT
MASTER
(167)
{8}5b/6b,,2b/8b,{24}1,1,1,{4}1-5[8:1],14,{16}46,46,,7,8,7,8,7,{4}8>5[8:1]*-5[8:1],8b,
{8}6,6,56,6,36,{16}2,4,,4,{8}2,35,3,43,3,63,{16}7,5,,5,{8}7,
84,8,86,8,83,{16}2,4,,4,2,,6,5,,7,8,7,8,7,{4}8-4[8:1],18,
{8}36,3,13,3,37,{16}6,8,,8,{8}6,{8}15,5,57,5,45,{16}3,1,,1,{8}3,
{8}84,4,43,4,47,{16}6,8,,8,6,,3,4,,2,1,2,1,,{4}3-6[8:1]/7-2[8:1],3b/7b,
8/5-3[8:1],7h[4:1],{8}2-5[8:1],8,8h[4:1],,6,7,5,{4}4h[4:1]/6,3>6[8:3],1h[2:1],,
5h[4:1],{8}6,6-3[8:1],,{2}7h[8:3],{16}2,1,2,1,,3,4,3,
{4}4-6[8:1],2h[4:1],{8}7-4[8:1],1,1h[4:1],,
3,2,4,{4}5h[4:1]/3,6<3[8:3],{2}8h[2:1],
{8}4h[4:1],,3,3-6[8:1],,1,{4}1-5[8:1],8-3[8:1]*-5[8:1],8b,{8}26,
2^5[8:1]/6,,7,7qq1[8:3],,4,4,3,3^8[8:1],,6,6pp4[8:3],,1,1,2,
2^7[8:1],,5,5V37[4:1],,1,1,,28,28,37,37,{4}2-4[8:1]/6-8[8:1],2x/6x,
3/7^4[8:1],{8}3,3qq8[8:3],,5,5,6,6^1[8:1],,2,2v5[8:1],,8,8,,
56,7,34,2,{4}5-2[8:1]/6-1[8:1],56,{8}1x/2x,18,78,6/7-4[8:1],,5,5<4[4:3],,{1}Cf,
{4}5/6h[2:1],B7,{8}8,8h[8:3],{4}B1,2h[2:1],B3,{8}4,4h[8:1],{4}C,
{16}2h[8:1]/1h[8:1],,,18,,18,,,{8}2b/6b,1,18,7,
73,,{16}2,4,3,,7,5,6,,1,4,3,,7,5,7,5,6,4,6,4,{4}5-8[8:1],1b,
{32}2/8h[8:1],3,4,,,,7/1h[8:1],6,5,,,,2/8h[8:1],3,4,,,,7/1h[8:1],6,5,,,,
3/8w4[8:1],4,5,,{8}7,{4}8b,2pp5[16:5]/6pp1[16:5],{2}2b/6b,
{16}4h[8:1]/8h[8:1],,,2h[8:1]/6h[8:1],,,1h[8:1]/5h[8:1],,,4h[8:1]/8h[8:1],,,{8}1-4[8:1]/5-8[8:1],26,
{2}15,{4}4^1[8:1]b/8^5[8:1]b,4b/8b,
2-5[8:1]/6,{8}2/8^3[8:1],7,6/8-4-6[16:3],,84,,2,{16}6,5,,3,{8}4-8[8:1],,1,3,,
7^4[8:1],1,3-6[8:1],1,7-4[8:1],,7/3>5[4:1],,8,,4,4h[4:1],,8,2b/6b,,
7-4[8:1],4^5-8[16:3],7,2-6[8:1],,2,8,7,6/2-5[8:1],5^4-1[16:3],2,7-3[8:1],,7,8,1,
{16}2,2,8,8,6,6,2,2,4,4,6,6,2,2,4,4,1,7,5,8,2,4,1,5,{4}2b-5[8:1]/6b-1[8:1],{4}2b/6b,
7-4[8:1]/3,{8}7/1^6[8:1],2,3/1-5-3[16:3],,15,,7,{16}3,4,,6,{8}5-1[8:1],,8,6,,
2^5[8:1],8,6-3[8:1],8,2-5[8:1],,2/6<4[4:1],,1,,5,5h[4:1],,1,7b/3b,,
2-5[8:1],5^4-8[16:3],2,7-3[8:1],,7,1,2,3/7-4[8:1],4^5-1[16:3],7,2-6[8:1],,2,8,7,
{16}3,4,3,5,3,6,3,7,3,7,2,6,1,5,8,4,1,2,3,4,51,6,7,8,15,26,37,48,{4}1b/5b,
3h[8:1]/7h[8:1],{16}6,6,5,,46,,35,,2,2,{8}4,34,4-7[8:1]/5,56,4-8[8:1]/5,,1,1,,
34,5-2[8:1]/4,56,5-1[8:1]/4,,8,8,,28,{16}6,5,,3,4,,{4}1v4[8:1]/7v4[8:1],1b/7b,
{8}26,26,{16}7,5,6,,3,4,2,,6,5,{8}7-4[8:1],4^7[8:1],7^2[8:1],2V48[4:1],3,{2}3h[4:1],
{32}7b/1h[8:1],6,5,,,,2b/8h[8:1],3,4,,,,7b/1h[8:1],6,5,,,,2b/8h[8:1],3,4,,,,
6b/1pp5[4:1],5,4,,{8}2,{8}1b,,7,7,{16}2,6,4,8,1<2[16:5],5,3,7,{2}1,{8}18,27,{4}3-8[8:1]/6-1[8:1],{1}3b/6b,
{16}1h[8:1]/8h[8:1],,,1h[8:1]/8h[8:1],,,{4}18,{16}4,5,{8}36,,
45,45,34,34,45,45,{24}6,5,6,5,6,5,{16}47,,,25,,,18,,{4}1-5[8:1]/8-4[8:1],1b/8b,
{8}27,27,{16}6-1[8:1],1,7,3,{8}6^3[8:1],5,68,8,12,12,{16}3-8[8:1],8,2,6,{8}3^6[8:1],4,31,1,
{16}7,8,6,1,5,2,4,3,1,2,8,3,7,4,6,5,47,,,25,,,18,,{4}1^4[8:1]/8^5[8:1],1b/8b,
{16}2h[8:1]/7h[8:1],,,6h[8:1]/1h[8:1],,,2h[8:1]/7h[8:1],,,3h[8:1]/8h[8:1],,,12,,12,,
1h[8:1]/3h[8:1],,,8h[8:1]/2h[8:1],,,7h[8:1]/1h[8:1],,,6h[8:1]/8h[8:1],,,{8}27,,
18,18,{32}7,6,5,4,2,3,4,5,{16}8,8,,1,1-5^2[8:3],,27,,4,,,6,,,{8}8,8-4[8:1]b,,1b/8b,,
34,34,{16}2v5[8:1],5,3,7,{8}2^7[8:1],1,24,3,26,26,{16}7v4[8:1],4,6,2,{8}7^2[8:1],8,75,5,
{16}3,4,2,5,1,6,8,7,5,6,4,7,3,8,2,1,{32}3,4,5,6,7,8,1,2,3,4,5,6,7,8,1,2,3,4,5,6,7,8,1,2,{4}3b/Cf,
1h[8:1]/8h[8:1],{8}27,27,{16}6,5,,5,{8}7,31,2/8-5[8:1],,7,7,{16}3,4,,4,{8}2,68,
7/1-4[8:1],,2,2,{16}6,5,,5,6,,38,,2,1,,1,2,8,3,7,4,6,2,15,,37,37,,
{8}56,8,34,1,56,8,{16}3,4,{8}2,78,6,12,3,78,6,{16}2,1,{8}3,
5-1[8:1]/6-2[8:1],47,5b/6b,,4-8[8:1]/3-7[8:1],52,4b/3b,,
{24}1,2,3,4,5,6,72,3,4,5,6,7,83,4,5,6,7,8,18,27,36,{1}4b/5b,,,,E
Re:MASTER
- 追加しました。修正等ありましたらよろしくお願いします。 -- けもがみ (2024-06-25 00:18:25)
最終更新:2026年04月09日 18:56