BASIC
ADVANCED
EXPERT
MASTER
(180)
{4}2pp8[2:1]/8,8,7,7,6qq1[2:1]/1,1,2,2,3qq5[2:1]/1,8,7,6,6-1[8:1]/5,4,{12}2,1,2,8,1,8,
{4}7qq4[2:1]/2,2,3,3,5pp8[2:1]/2,2,3,4,{12}7,7,3,6,6,2,5,5,1,4,4,8,{1}4>8[4:1]*<8[4:1],
B6/B7/E7/Chf[4:7],{4}7,6,5-1[8:1],,
28,17,56,{24}34,,,,2x,1x,{4}2xh[4:1],{24}1,,,,7x,8x,{4}7xh[4:1],{4}5,
46,28,{12}7,8,7,1,8,1,7,8,6,8,5,8,6,1,7,2,8,3,1,4,1,3v8[4:1],1,2,{4}1,
{4}7qq4[8:5],3,2,1,8,{12}8,6,1,7,2,8,3,1,3,8^5[4:1],4,8,{4}5^2[4:1],2^7[4:1],7-4[8:1]b,,
{12}3p7[8:1],,3,5q1[8:1],,5,3p7[8:1],,3,5,,,6q2[8:1],,6,4p8[8:1],,4,6^1[8:1],,6,4,,,
2q6[8:1],,2,8p4[8:1],,8,2q6[8:1],,2,8,,,7p3[8:1],,7,1^4[8:1],,1,6,,6,4,,4,
{4}5,78,{12}2h[4:1],,1,1,,,18,,7,71,,2,2/8-2[8:1],,7,78,,,
{4}6h[4:1],4,{12}2h[4:1],,4,4,,,3,,2,{4}2/1^7[8:1],1^3[8:1]/2,1x,
{12}46,,5,4,,4,3,,3,2,,2,1h[4:1],,,2,8,1,{4}7,3b/6b,
{12}2bx,1bx,2bx,7bx,8bx,7bx,3bx,4bx,2bx,6bx,5bx,7bx,18,,2,13,,7,68,,45,{4}3b/6b-2[8:1],
6/1-4[8:1],1/7-3[8:1],7/2-8[8:1],2/6-4[8:1],16,
{12}2,1,2,38,,,4b,4,4,35,,,8-4[8:1],1,7,{4}6/8,3^8[8:1]/7^4[8:1],
37,6-1[8:1]/2-5[8:1],6x/2x,7x/3x-7[8:1],3/8-5[8:1],8/2-6[8:1],2/7-1[8:1],7/3-5[8:1],
13,{12}7,8,6,{4}15,2b/4b,{12}3,3,3,1,1,1,8,8,8,6,6,6,2-5[8:1],,6-1[8:1],2,,6,3-8[8:1],,7,3b,,,
{4}1^4[8:1]/5,7/1^6[8:1],3/1^4[8:1],7/1-5[8:1],1/3^8[4:1],{12}7,6,5,{4}4h[4:1],1b-5[8:1],
1/6^1[4:1],{12}2,3,4,{4}5h[4:1],8b,{12}7-1[8:1],,5,7-5[8:1],,3,7-3[8:1],,2,{4}7b,
2/4-1[8:1],6/4-7[8:1],2/4^1[8:1]b,4/8^5[8:1],1x/8x,{12}4,35,26,{4}1-3[8:1]*-7[8:1]/7,1b,
{12}6,5,8,3,4,1,6,5,7,4-8[8:1],6,2,4b,,,1-4[8:1]/7-4[8:1],17,17,{4}1bx/7bx,35,
17,5-8>5[1:1]/3h[4:5],{2},{1},
{4}64,6^4-1-4^6[1:1]/4h[4:5],{2},{1},
(190){4}14,1<4v6[1:1]/4h[4:5],{2},{1},
{4}62,6-2<3[1:1]/2h[4:5],{2},{1},
(200){4}14,1-4-8-5[1:1]/4,5,5,6,6,7,8,
(210){4}48,4v1v4[1:1]/8-5-8[1:1],{2},{1},
(220){4}12,1-5[4:1]/2,3,4,6/5-1[4:1],7,8,7,
(230){4}5pp5[2:1]b*qq5[2:1]b/6,5,,,
{4}46,25,47,1b/5,
{8}2,2,8,{4}17,86,75,{8}6,5,{4}6^1[8:1],2h[4:1],{8},
2,3,4,{4}5^8[4:1],8^3[4:1],3^6[4:1],6-8[16:3],2,{8}3,3/1x,,
7,7,1,{4}28,13,24,{8}3,4,{4}3^8[8:1],7h[8:9],{8},
B1f,B2f,B3f,B4f,A1f,A2f,A3f,A4f,6,6,8,8,1,1,37,,
2,4h[8:1],2,4h[8:1],3,5h[8:1],3,5h[8:1],2,4h[8:1],3,5h[8:1],2-4[8:1],4,{4},
{8}7,5h[8:1],7,5h[8:1],6,4h[8:1],6,4h[8:1],7,5h[8:1],6,4h[8:1],7-5[8:1],5,{4},
{8}3,5h[8:1],2,4h[8:1],1-5[8:1]b,3,{4},{8}6,4h[8:1],7,5h[8:1],8-4[8:1]b,6,{4},
{8}25,3,47,6,25,3,{4}46,1h[8:1]/8h[8:1],3h[8:1]/4h[8:1],5h[8:1]/6h[8:1],3b/8b,
{8}2-6[8:1],1-5[8:1],2,{4}1^4[8:1],1^6[8:1]/6x,1/3x,{8}2-6[8:1],6xV48[4:1],2,,7,7,,
16,{16}3,4,3,,{4}2-5[8:1]/5,2/7-4[8:1],7/3-8[8:1],3/6-1[8:1],26,{8}4,3b/5b,,
7-3[8:1],8-4[8:1],7,{4}8^5[8:1],8^3[8:1]/3x,8/6x,{8}7-4[8:1],3x,7,,2x/6x,2x/6x,,
1b/5,2b/6,3b/7,4b/8,1b/5,2b/6,3b/7,4b/8,{16}1,2,3,4,51,6,7,8,{2}1h[4:1]/5h[4:1],
{8}2-4[8:1],1-5[8:1],2,1,8-4[8:1],7-5[8:1],8,{4}7^2[8:1],7/3^6[8:1],3/8q4[8:1]*v3[8:1],8,{8}2x/5x,
2x/5x,{16}3,4,3,,{4}2-6[8:1]/6,28,1-5[8:1]/5,1/8-4[8:1],38,{8}35,26,,
{8}7-5[8:1],8-4[8:1],7,8,1-5[8:1],2-4[8:1],1,{4}2^7[8:1],2/6-3[8:1],6/1V35[4:1],71,{8}8,
4x/8,3,26,5,{16}3,4,2,4,{4}3,2b/4b,5b/7b,{8}18,27,3b/6b,,
7-4[8:1],7,3-8[8:1],3,6-3[8:1],6,2-6[8:1],2,7-3[8:1],7,8-4[8:1],8,1-5[8:1],1,2-6[8:1],2,
7-1[8:1],7,3-5[8:1],3,6-1[8:1],6,3-8[8:1],3,5-1[8:1],5,2-5[8:1],2,8-5[8:1],8,4,,
36,{16}2,4,2,,7,8,6,1,{8}5,2x/4x,,36,{16}7,5,7,,2,1,3,8,{8}4,7x/5x,,
{16}4b,6,4b,6,3b,7,3b,7,2b,8,2b,8,{24}1,1,1,1,1,1,
{4}1,2hx[8:1]/8hx[8:1],4h[8:1]/6h[8:1],3hb[8:1]/7hb[8:1],
{8}15,,78,7,78,,16,{16}7,8,{8}7,,18,8,82,,37,,84,,21,2,21,,83,{16}2,1,
{8}2,,2,2,{16}3h[8:1]/4h[8:1],,,4h[8:1]/5h[8:1],,,56,,
6,5,6,5,7,4,7,4,8,3,8,3,{4}12,{16}3,4,3,4,2,5,2,5,1,6,1,6,{4}87,
{16}1,2,3,4,8,7,6,5,{32}1,2,3,4,5,6,7,8,1,2,3,4,5,6,7,8,{4}1-5[8:1],1^4[8:1]*^6[8:1],1w5[8:1],A1f,
{4}3hx[8:1]/7hx[8:1],
(215)4hx[8:1]/7hx[8:1],{8}5,7h[8:1],
(195)5,7h[8:1],4,6h[8:1],
(180)4,6h[8:1],3,6h[8:1],
(165)3,6h[8:1],2,
(155)5h[8:1],1,5h[8:1],
(140)8,5h[8:1],
(135)7,
(131)5h[8:1],6,5,4p1[2:1],5,{2}4,{1}Ch[4:1],,,,E
Re:MASTER
- 追加しました。修正等ありましたらよろしくお願いします。 -- けもがみ (2024-07-06 22:54:38)
最終更新:2026年04月11日 21:28