| アーティスト |
打打だいず Vs. Tanchiky Vs. からめる |
BASIC
ADVANCED
EXPERT
(220){1}3h[1:2]/5b,B4,6h[1:2],B5,2h[1:2],E4,{4}7,,1>4[2:1]/8<5[2:1],,,,4/5,,3/4,3h[4:1]/4h[4:1],,3pp8[4:3]/4,,,,,6/5,6h[4:1]/5h[4:1],,6pp3[4:3]/5,,,,,{1}2h[2:1]/4h[2:3],6h[2:3],8h[1:3],Chf[1:2],,,
{4}1,1,1/2,1/2,1/3,1/3,1/4,1/4,1/3,1/3,1/2,1/2,{8}3,3,8,8,1,1,6,,{4}8/7,8/7,8/6,8/6,8/5,8/5,8/6,8/6,{8}7,7,5,5,4,4,2,2,{1}E1f/B1/B8,{8}3,,1/4,,7,7,8,,6,,8/5,,2,2,1,,8,,1/7,,3,3,4,,{4}2h[4:1],4h[4:1],5h[4:1],7,5h[8:1]/6h[8:1],5h[8:1]/6h[8:1],8h[8:1]/7h[8:1],8h[8:1]/7h[8:1],4h[8:1]/3h[8:1],4h[8:1]/3h[8:1],1h[8:1]/2h[8:1],1h[8:1]/2h[8:1],1-4[8:1]/2-4[8:1],,8-5[8:1]/7-5[8:1],,1-5[8:1]/2-5[8:1],,8-4[8:1]/7-4[8:1],,{1}1bw5[4:5]b/8b,,{12},,4/6,,4/6,,4/6,,5/3,,5/3,,5/3,,2/4,,2/4,,2/4,,1/3,,1/3,,{1}1bq2>8[2:3]/3b,,{12},,1x,8x,1x,,2x/7x,,3x/6x,,4x,,{4}5x,E3/B3/E4,E7/B6/E6,E1,
{8}1hx[1:1],,4,4,4,,5,5,5<1[4:1],,,,2V46[4:1],,,,8h[1:1],,5,5,5,,4,4,4>8[4:1],,,,7V53[4:1],,,,2h[4:1],,4h[4:1],,6,,5/7,,7h[4:1],,5h[4:1],,3,,4/2,,{12}2/4,,,3,4,3,4,,,4/7,,,6,5,6,5,,,3/8,,,2,1,2,1,,,6/1,,,7,8,7,8,,,{4}1/5,3>8[4:1]/7<4[4:1],,,{1}1bqq2[4:11]b/5bqq6[4:11]b,,,,{4}3h[1:1],,,4,4h[1:1],,,5,5h[1:1],,,6,6h[1:1],,,,{1}3<6[4:3],7p3[4:3],2q6[4:3],7>2[4:3],3h[2:1],3h[2:1]/4h[2:1],3h[2:1]/4h[2:1],3h[2:1]/4h[2:1],
{8}2b/8b,2/8,2/8h[2:3],,{16}A1,B1,C,B5,A5,,,,E2,B2,B3,B4,E5,,,,A2,D3,A3,D4,A4,,,,{8}7b/1b,7/1,7/1h[2:3],,{16}A8,B8,C,B4,A4,,,,E8,B7,B6,B5,E5,,,,A7,D7,A6,D6,A5,,,,{2}2h[4:1]/4xh[4:1],7h[4:1]/5xh[4:1],{12}5/6,,,3,4,3,4,,,2/5,,,{4}3/4,3/4,4/5,4/5,5/6,5/6,4/5,4/5,{8}3,3,6,6,2,2,7,7,{16}1,8,1,8,1,8,1,8,1,8,1,8,1,8,1,8,{1}1w5[2:1],{8}2b/8b,2b/8b,2b/8b,,3,4,2,2>5[8:1],
{8},8,8,,6,5,7,7<4[8:1],,1,1,,2,4,3,3-6[8:1],,7-4[8:1],,2-6[8:1],,8-4[8:1],,1,,3/5,3/5,,7,8,6,6-3[8:1],,1,1,,2,4,3,3/4-8[8:1],,,,6/5-1[8:1],,,,2b/8b,,5/6,5h[4:1]/6,,4h[4:1],,3,,{16}1x/2x,,,8x/7x,,,2x/3x,,,5x/6x,,,4x/7x,,4bx/7bx,,{8},2/4,4<8[4:1]/2,,3,,5>1[4:1],,6,,4<8[4:1],,3,,1,1,,1/2,3,4/5,6,5/7,,2/8,,8/7,6,5/4,3,4/2,,7b/1b,,2,2h[4:1],,4h[4:1],,6h[4:1],,8h[4:1],,1,,1/8,1/8,,2b/7b,,{16}1,8,1,8,1,8,1,8,1,8,1,8,1b,,{8},3b/4b,,5b/6b,,8b/1b,8b/1b,,{8}2>5[8:1],,,6<1[8:1],,,3>8[8:1],,,7<4[8:1],,,2<7[8:1],,,6>3[8:1],,,2h[4:1],,1h[4:1],,8h[4:1],,7<4[8:1],,,3>8[8:1],,,6<1[8:1],,,2>5[8:1],,,7>2[8:1],,,3<6[8:1],,,7,,7/8,,1/2,,{1}B6/B5/B4/B3/Cf,,,,{4}3h[2:1]/5h[2:1],,,,6h[2:1]/4h[2:1],,,,3h[4:1]/5,6,7h[4:1]/4,3,2/5,3/6,4/7,6V41[2:1]/3V58[2:1],,,,1/8,
{16}2bh[16:3]/7b,,,1,,,3/8,,7h[16:3],,,8,,,6/1,,2h[16:3],,,1,,,3/8,,8-5[8:1]/3<5[8:1],,,,,,,,6h[16:3],,,5,,,7/4,,3h[16:3],,,4,,,2/5,,{4}2/5<8[8:1],1>4[8:1],5,5/6,{12}3b/8b,,3/8,,3/8,,2b/7b,,2/7,,2/7,,1b/6b,,1/6,,1/6,,8b/5b,,8/5,,8/5,,{8}1,1,7,7,2,2,8<1[2:1],,{4},,,1bx/8bx,{8}7/8,7/8,7/8,,1/6,,2pp1[2:1]/5,,{4}B3/E4f/B4,,,7/8,{8}2/1,2/1,2/1,,8/3,,7pp5[2:1]/4,,{4}B8/E1f/B1,,,3/6,2-5[8:1],1-6[8:1],3-8[8:1],4-7[8:1],1-5[8:1],8-4[8:1],{8}3,3,3,,2/6,2/6,3/7,3/7,4/8,4/8,4/8,,{16}1b/2b,,,5b/6b,,,2b/4b,,,,,,A7/B7/Cf/B3/A3,,,,{2},,,,,{16}8x,7x,6x,5x,4x,3x,2x,1x,8x,7x,6x,5x,4bx,,,,
{2}3-8[8:1]/4-8[8:1],6-1[8:1]/5-1[8:1],{8}2,2h[8:1],4,4h[8:1],5,5h[8:1],7,,{2}6-1[8:1]/5-2[8:1],3-8[8:1]/4-7[8:1],{8}6,6h[8:1],8,8h[8:1],1,1h[8:1],3,,{2}3-6[8:1]/7v2[8:1],8-5[8:1]/4v1[8:1],6-1[8:1]/2v5[8:1],{4}3/7,3/7,,{16}4,5,4,5,,,3,6,3,6,,,2,7,2,7,,,1,8,1,8,1,8,1b,8b,1b,8b,1b,,,,E7/B7/B6/B5/E5/B4/B3/Cf/B2/E3/E4/E6,E
MASTER
(220)
{1},
4bxh[1:1]/5bx<4[4:13],,5h[1:1],,
{4}5bx/4bx^1[4:3],6,6,6,7^4[4:3],1,1,1,2bx,2,3,4,
{2}3bxh[4:1]/5bxh[4:1],
{16}4,6,4,6,4,6,4,6,
{8}3bx-6[8:1],3,
{4}7,8h[4:1],
{8}5>1[4:1],5,
{4}1<5[4:1],5,1,38,
{8}6bx-3[8:1],6,
{4}2,1h[4:1],
{8}4<8[4:1],4,
{4}8>4[4:1],4,8,46,5bx/7xh[2:1],5,5,
{8}56,4,
{4}3xh[2:1]/5bx,5,5,24,
{8}1bx,1,7,7,2,2,8,8,1bx,1,3,3,5,5,7,7,18,18,18,18,
{16}1,8,1,8,1,8,1,8,
{4}1-4[8:1],5-8[8:1],3bx,1-5[8:1],
1b/7-4[8:1],2-5[8:1]/7,2/8-4[8:1],3-8[8:1]/8,
3/6^3[8:1],1-5[8:1]/6,18,
{8}46,37,
{4}2b-5[8:1]/8b,2/6-1[8:1],46,28,
{8}3b/7b,
{16}6,5,6,5,
{8}6h[8:1],
{16}3,4,3,4,
{4}2,1b/8b-4[8:1],2-5[8:1]/8,2/7-4[8:1],3-8[8:1]/7,3/6-3[8:1],1-5[8:1]/6,18,
{8}46,37,
{4}2b-5[8:1]/8b,2/7-3[8:1],1b/7b,
{8}12,12,
{4}3b/8b,5h[8:1]/6h[8:1],5h[8:1]/6h[8:1],
{16}65,4,3,2,
{4}1x^6[8:1],
{8}5-1[8:1],5,
{4}2^5[8:1],7,8^3[8:1],
{8}4-8[8:1],4,
{4}7^4[8:1],1,2h[4:1],
{8}3,4,
{4}5-8[8:1],1^4[8:1],1^6[8:1],1-5[8:1],1,46,7-5[8:1],1/7-1[8:1],2/7-3[8:1],37,
1-4[8:1]/2-4[8:1],12,5-8[8:1]/6-8[8:1],56,1b,
{12}7,5,6,
{4}3h[4:1],
{12}4,3,5,
{4}2h[4:1],1,1/8-3[8:1]*-5[8:1],,2b/6b,
{8}3,3,45,6,5,7,
{4}7V53[8:3],
{8}8,8,,2,2,2bx/8bx,
{6},
1xh[12:1]/2xh[12:1],1xh[12:1]/2xh[12:1],3h[12:1]/4h[12:1],
5h[12:1]/6h[12:1],7h[12:1]/8h[12:1],1h[12:1]/6h[12:1],
2h[12:1]/5h[12:1],3h[12:1]/4h[12:1],4h[12:1]/5h[12:1],
5h[12:1]/6h[12:1],4x/7x,
{4}4bx/7bx,
{8}6,6,45,3,4,2,
{4}2V46[8:3],
{8}1,1,,7,7,1bx/7bx,
{8},
{12},2x,4x,
{6}3xh[6:1],5xh[6:1],
{6}4xh[6:1],
{8}6x,
{4}4x/6x,5bx/7bx,1bx/8bx,2bx-6b[8:1]/6bx-2b[8:1],
{2}Cf,
{4}1^6[4:1],6^3[4:1],3p6[4:1],6,8,17,
4b/8b^3[4:1],3^6[4:1],6^1[4:1],1q6[4:1],6,1,28,37,
{2}2b-5-8[2:1]/6h[4:1],
{4}8-3-6[2:1],7,6-1[4:1],5,4,35,4b/6b,
{12}5,5,5,
{4}5,46,
{12}3,3,3,
{4}3,24,
{12}1,1,1,
{4}1,26,
{12}26,37,48,
{4}1h[6:1]/5h[6:1],
{1}1bx<5[2:1]/5bx>1[2:1],
2bh[1:15]/Ch[1:2],,,
6^3[2:1],
{2}E4,C,E8,E2,
{1}Ch[1:1],,
8-2-7-3-6-4[4:9],,,
4h[2:1],3h[2:1],
{2}B3/E3/E4,1,Ch[1:1],,,
{16}1,8,1,8,
{4}1,
{8}3b/4b,3b/4b-1b[8:5]*^5-8[8:5],,,
{1},
{8}1,1,6,6,7b/8b,7b/8b-5[8:5]*^1-4b[8:5],,,
{1},
{8}46,46,
{4}4/6h[4:1],5bx,
{12}3,3,5,
{4}4bxh[4:1],
{12}6,6,5,
{4}7bxh[4:1],5h[4:1],4bxh[4:1],2,
3-8[8:5],4,4,5,
6-1[8:5],5,4,3,
{8}2b,2,1,1,28,28,28,28,
{16}
8,7,6,5,
2,3,4,5,
8,7,6,5,
4,3,2,1,
{1}4b/8h[1:1],
{8}5b,5b,4b/6b,4b/6b,
{16}3,5,3,5,2,4,2,4,
{4}
1b-4[8:1],1-5b[8:1]/6^8b[8:1],1/6-4[8:1],6/2-8b[8:1],
2^4[8:1]/5-1[8:1],2-6b[8:1]/5,2/8-4[8:1],
{8}48,3,
{4}
2-8[8:1]/5-8[8:1],2-4[8:1]/5,2/7-4[8:1],
{8}2-6[8:1]/7^1[8:1],1,
{4}27,3x/8x,
{8}56,56,47,47,
{4}8b-5[8:1],3^1b[8:1]/8-4b[8:1],8/3-5[8:1],3/7-1b[8:1],
4-8[8:1]/7^5[8:1],4/7-3b[8:1],7/1-5[8:1],
{8}15,6,
{4}4-1b[8:1]/7-1b[8:1],4/7-5[8:1],7-3b[8:1]/2-5b[8:1],27,
{16}8bh[8:1],,,7bh[8:1]/5bh[8:1],,,3bh[8:1]/4bh[8:1],,,
{6}1b/2b,{24}1b/2b,3x/8x,4x/7x,
{8}5bxh[48:13]/6bxh[48:13],,,
{48},
{4}4x/7xV53b[4:1],
3bx<8b[4:1],
8bxV63b[4:1],
3bxV58b[4:1],
8bx<3b[4:1],
3bx-6-8b[4:1],
8bx-5-3b[4:1],
3bx<8b[4:1],
8bxV63b[4:1],
3bxV58b[4:1],
8bx,
{8}2,2,
{4}1/2-6-2[4:1],
{8}8b,8b,,1b/7b,,78,7/8^3[8:1],,
{4}68,4-8b[8:1]/7-5b[8:1],47,14,
{8}5b/6b,7b/4b^1[8:1],,Cf,,
{16}8,8,1,2,3,4,7,6,5,4,
{8}1,2b-6b[8:1]/8b-6b[8:1],,2b-4b[8:1]/8b-4b[8:1],,2b/8b,,2b/8b,3b/7b,,
5b/6bh[4:1],,5,6h[4:1]/4,,4,6h[4:1]/3,,3,6h[4:1]/2,,2,6h[4:1]/1,,1,6h[4:1]/8,,7,
{4}7b,5b/6b,3b/4b,
{8}2bh[4:1]/1b,,8,2h[4:1]/B8,,7,2h[4:1]/B7,,
6,2h[4:1]/B6,,5,2h[4:1]/B5,,4,2h[4:1]/B4,,3b,
{4}3b^6b[8:1],8b^3b[8:1],7b-3-5-8-2-6b[2:7],
{1}B2/B3/E3f/D3,,,,
{4}6x,
{8}6,5,
{4}6/4h[4:1],6,6x,
{8}6,5,
{4}6/4h[4:1],6,5/3h[4:1],5,5/7h[4:1],5>1[4:1],6,4<8[4:1],3,1s5[4:3],
{1},
{8}3b/8b,
{16}2,1,2,1,
{8}3h[8:1],5b,
{16}7,8,7,8,
{8}6h[8:1],4b,
{16}2,1,2,1,
{8}3h[8:1],{16}4b,,,7b/8b,,,{8}2b/5b,2b/5b,
{16}3,4,2,4,
{8}3h[8:1],8b,
{16}6,5,7,5,
{8}6h[8:1],1b,
{16}3,4,2,4,
{8}3h[8:1],
{16}1,8,7,6,
58,1,2,3,
{12}
4bx/7bx,,2x,2xv5b[12:1],1x,,
8b,,6,,4,,
3b/8b,,2x,2xv5b[12:1],1x,,
8b,,6,,4,,
{8}2-4[8:1],1-5[8:1],2,1,8-4[8:1],7-5[8:1],8,7,
{2}1bw5[8:1],
{16}2,8,2,8,
{4}3b/7b,
{16}6b,5,6,,3,,6b,5,6,,2,,8b,1,8,1,
7b,8,7b,8,6b,1,6b,1,5b,2,5b,2,
{4}4bh[4:1],
{16}3b,4,3,,6,,3b,4,3,,7,,1b,8,1,8,
2b,1,2b,1,3b,8,3b,8,4b,7,4b,7,
{4}5bh[4:1],
{8}6b-2[8:1],6,5b-1[8:1],5,
4b-8[8:1],4,3b-7[8:1],3,
2b-6[8:1],2,1b,1,
2b/8b,28,37,37,4b/6b,46,5b/7b,57,
{16}6b,5,7,,
7,8xh[12:1],,,
1bxh[12:1]/6bxh[12:1],,,2bxh[16:1]/5bxh[16:1],,,3bxh[16:1]/4bxh[16:1],,
{4},
{48}A3f,B3/E3/E4,B2/B4,B1/B5/Cf,B6/B7/B8,E7/E8,A7,,,,,,
{2},,,,,
{16}1b,8b,1b,8b,1b,8b,1b,8b,
2b,7b,2b,7b,2b,7b,2b,7b,
{8}3b^8[8:1],3,5bq2b[8:1],5,4bp7[8:1],4,6b,6,
{16}8b,1,2,3,8b,7,6,5,
{8}1b,1b,2b/8b,2b/8b,{8}3b^8[8:1],3,5bq2b[8:1],5,4bp7[8:1],4,6b,6,
{16}8b,1,2,3,8b,7,6,5,
{8}3b,3b,2b/4b,2b/4b,
{4}1bh[4:1],
{12}4,4,3,
{4}6bh[4:1],
{12}8,8,7,
{4}2bh[4:1],
{12}1,1,2,
{4}3b/7b,
{2}4bh[4:1]/6bh[4:1],
{16}3b,5b,3b,5b,3b,5b,2b,6b,2b,6b,2b,6b,
1b,7b,1b,7b,1b,7b,2b,8b,2b,8b,2b,8b,1bw5b[8:1],1b,1b,1b,
{4},
A1/A2/A3/A4/A5/A6/A7/A8/B1/B2/B3/B4/B5/B6/B7/B8/Cf/D1/D2/D3/D4/D5/D6/D7/D8/E1/E2/E3/E4/E5/E6/E7/E8,E
Re:MASTER
- ノーツの配置ミス、スライドの速さの修正を行いました。 -- けもがみ (2024-07-16 03:57:02)
- EXPERT譜面を追加しました。修正等ありましたらよろしくお願いします。 -- Sugar (2026-02-27 22:52:21)
最終更新:2026年02月27日 22:52