| アーティスト |
Morrigan feat.Lily and 結城碧 |
BASIC
ADVANCED
EXPERT
MASTER
(185)
{4},,,{32},,,,,,18,27,36,4bx/5bx<4[32:111],,,,,,,{4},,,
{1}Ch[2:1]/A3/A4/E4/B3/B4,Ch[2:1]/A8/A1/E1/B8/B1,Ch[2:1]/A5/A6/E6/B5/B6,
{32}1x<1[2:3]/8hb[1:2],B1,Cf,B5,A5,,,,{4},,,{1},
{16}1,2,3,4,2,3,4,5,3,4,5,6,4,5,6,7,
{8}4x/8x,,6,6,5,5^3[16:1],,6,,7,6-8[16:1],6-4[16:1],,{2},
{8}3,4,1h[4:1],,3,2,4h[1:1],,{2}3-5[16:1],{8}3^1[16:1],,,
5,6,5,7,6,5^3[16:1],6,7,,6,7-1[16:1],7-5[16:1],,{2},
{8}3/4h[4:1],,2,2h[4:1],,1,1h[4:4],,{2}2q6[8:1],{8}2^4[16:1],,,
8,7,6,{16}5,4,,4,6,,{8}57,,1,2,3,{16}4,5,,5,3,,{8}42,,
78,{16}6,5,6h[8:1],,4,5,,6,{8}5,47,,21,{16}3,4,3h[8:1],,5,4,,3,{8}4,52,,
17,{16}8,7,8,,6,5,6,5,6,,47,,3,,28,,1,2,1,,3,4,3,4,3,,25,,
16,,7,8,7,8,6,,2,1,2,1,3,,7,8,7,8,6,1,6,1,8,3,8,3,{32}7,6,5,4,3,2,1,8,{4}3b/7b,
{16}26,,3-1[16:1],5,4,,37,,6-4[16:1],8,7,,{4}16,
{16}37,,2-4[16:1],8,1,,26,,7-1[16:1],5,6,,{4}47,
2V86[8:3],{8}6,6V42^7[8:5],,1,8,7,6,5,{4}4-7V15[16:5],4x/3hx[4:1],,
{8}2h[4:1]/4,5-1[8:1],6,5/7-4[8:1],8,7/3qq4[8:3],2,36,,
7-3[8:1],8,7/2-5[8:1],1,2/6pp5[8:3],7,46,,4,3,2h[2:1],7,8,1h[8:1],,
4-8[8:1]b/7,4/7h[8:3],,,{24}1x,2,3,4,5,6,8x,1,2,3,4,5,
{16}2b/6b,,3-1[16:1],5,4,,37,,6-4[16:1],8,7,,{4}16,
{16}37,,2-4[16:1],8,1,,26,,7-1[16:1],5,6,,{4}47,
2<6[8:3],{8}6,6>7[8:5],,1,8,7,6,5,4-8[8:1]b,,48,1,
{4}2/6<2[4:1],2p4[4:1],{8}3,{2}3p1[8:3],{8}5,
6,{4}7/8^3[8:1],8^5[8:1],8-4[8:1]b,8b,{16}6,5,7,,18,,3,4,2,,18,,6,5,
7x,,{24}78,6,5,{8}4,2x,{24}21,3,4,{8}5,2x/7x,3x/6x,{4}4/5<4[8:3],,,
{8}1b/5b,1b/5bV74-8[8:3],,3,,2,2,,1,1h[8:1],,2h[8:1]/4h[8:1],,35,4,4,3,24,,
5,5,4,6h[4:1],,5,46,3,3h[4:1],7,7h[4:1],,5,5,
4V25-1[8:3]/6,,7,7,,8,,78,7h[8:1]/8h[8:1],,5h[8:1]/6h[8:1],,78,6,5,4,7,
5V36-2[8:5]/6,{4}56,8,2-7-1[2:1],7,1s5[8:3],5,6,
1V38-4[8:3]/8,7,{16}7,,6,6,{8}5,6,5h[4:1],8,6h[4:1],8,5,7,7,6,56,,
4,4,5,3h[4:1],,4,35,2,2h[4:1],4,4h[4:1],6,6h[4:1],,
{4}8V61-5[8:3],2,{16}2,,3,3,{8}4,3,4h[4:1],1,3h[4:1],1,4,2,2,3,4,
57,5h[8:1]/7h[8:1],,2h[8:1]/4h[8:1],,78,
{4}7>3[8:1]/8<4[8:1],A7/D8f/A8,2x<6[8:1]/1x>5[8:1],A2/D2f/A1,
1x<5[8:1]/8x>4[8:1],{32}1bxpp4[4:5]b/8bxqq5[4:5]b/D1f,D2/D8,D3/D7,D4/D6,,,,,{1},{4},{2},
4h[8:3]/5h[8:3],{32}E4,B3,B2,E2,E6,B6,B7,E8,{16}1x,8x,1x,8x,{2}1x-5[8:1],
{8}4h[16:1]/6h[16:1],3h[16:1]/7h[16:1],2h[16:1]/8h[16:1],1h[16:1],
{4}8-6[16:1],8/2-4[16:1],2/5-1[8:1],5/3-7[8:1],3/4-6[16:1],4/8-2[16:1],8/7-3[8:1],
7/4<2[4:3],{8}6,6h[8:3],{2},{4}8w4[8:1],8b,1w5[8:1]b,1b,
7^4[8:1],7/2^7[8:1],2/5^2[8:1],5/8^5[8:1],8/3^8[8:1]b,3/6^3[8:1]b,6/1^6[8:1]b,1/4^1[8:1]b,45,
{8}7-3[8:1],7,8-4[8:1],8,1^6[8:1],1,,3,2-6[8:1]b,2,1-5[8:1]b,1,8^3[8:1]b,8,,{24}6,7,8,
{4}1b-6[8:1]/5b,1/3-8[8:1]b,3/5-2[8:1],5/7-4[8:1]b,7/8-5[8:1],8/6-3[8:1]b,6/4-1[8:1],4/2-7[8:1]b,
28,{8}12,12,38,47,{4}5/6w2[8:1],6b,3w7[8:1]b,3b,15,
{16}7b/3b,,6-8[16:1],4,5,,62,,3-5[16:1],1,2,,83,,7,,
6b/2b,,7-5[16:1],1,8,,73,,2-8[16:1],4,3,,52,,6,,
{4}7bqq4[8:3],{8}4,4<2[4:1],,2,3,4,5x/6x,7,5x-2^8-4[16:5]b/6x,8,{2}5x/6hx[4:1],
{8}5/7h[4:1],4-8[8:1],3,{4}2/4^1[8:1],4/6pp5[8:3],{16}6x/8x,1,2,3,{4}4w8[8:1],4,{8}26,2b/6b,,
7-4[8:1]/8,1,7,3-6[8:1],2,8,8h[4:1],,5b-1[8:1]b,{8}3hb[8:3]/7b,,,{24}8x,7,6,5,4,3,1x,8,7,6,5,4,
{16}7b/3b,,6-8[16:1],4,5,,62,,3-5[16:1],1,2,,83,,7,,
6b/2b,,7-5[16:1],1,8,,73,,2-8[16:1],4,3,,52,,6,,
{4}7b^4[8:1],{8}78,3qq4[8:3],,35,6,7h[4:1],,5x-1[8:1],6,5/7x-4[8:1],8,3x,3x>7[4:1],,
7q5[4:1],,6,{2}6q8[8:3],{8}4,3,{4}2/1^6[8:1]b,1b/4-8[8:1]b,4b/7^4[8:1]b,1b/7b,
{16}2,4,1,,38,,7,5,8,,16,,2,4,{8}1h[16:1],
2h[16:1]/8h[16:1],3h[16:1]/7h[16:1],4h[16:1]/6h[16:1],{2}5w1[8:1],
{16}3b,4,3,4,2,6,2,6,8,7,8,7,1,5,1,5,2,4,2,4,3,5,3,5,4,6,4,6,5,7,5,7,
2,8,2,8,2,6,2,6,2,4,2,4,2,6,2,6,2,5,3,6,4,7,4,7,2,5,2,5,4,6,3,5,
2,4,2,4,1hb[8:1],,8,8h[8:1],,4,4h[8:1],,7,5,7,5,8hb[8:1],,2,2,1,3,8,4,7,5,6,4,7,3,8,2,
1,3,1,3,7,2,7,2,6,8,6,8,7,2,7,2,8,1,8,1,7,2,6,3,5,4,6,3,7,2,8,1,
8b,1,8,1,7,5,6,4,5,3,4,2,8,1,7,7,1b,8,1,8,2,4,3,5,4,6,5,7,1,8,2,2,
8b,3,7,4,6,5,7,2,6,3,5,4,6,1,5,2,4b,3,4,2,4,1,4,8,5,8,6,8,7,8,6,6,
2b,5,3,4,2,5,1,6,4b,7,5,6,4,7,3,8,2b,1,4,7,3b,8,4,6,5b,7,4,5,3b,6,2,4,
1b,5,2b,6,3b,7,4b,8,3b,7,2b,6,1b,5,8b,4,{2}3hbx[2:1]/7hbx[4:1],
{24}7,8,1,2,3,4,{32}5x/6x,7,8,1,2,3,4,5,{1}6bxqq3<7[4:15]b`2bxqq7>3[4:15],,,,E
- 追加しました。修正等ありましたらよろしくお願いします。 -- けもがみ (2024-08-03 23:15:56)
最終更新:2024年08月03日 23:15