アットウィキロゴ

Ai C

アーティスト Feryquitous

BPM BASIC ADVANCED EXPERT MASTER Re:MASTER
191 5 8 12 14 -

EXPERT MASTER Re:MASTER
譜面制作者 Luxizhel メロンポップ -

BASIC


ADVANCED


EXPERT


MASTER

(191)
{512}1x/8x<1[4:11]*q1[4:11],B8/B1,C,B3/B6,B4/B5,E5,,,,,,,,,,,{32},,,{8},{1},,,{4},1s5[8:1]/8z4[8:1],,
{8}2h[8:3],,,4h[8:3],,,{2}5p4[4:3],{8},7,,8,8,,7h[8:3],,,5h[8:3],,,{2}4q5[4:3],{8},2,,1,1,,
2h[4:1],,4,4h[4:1],,5,{2}5qq1[4:3],{8},7,,8,8,,7h[4:1],,5,5h[4:1],,4,4h[4:1],,{1}3-7V51[2:1],

{8}5,6,7-5[8:1],,3,3-8[8:1],,4,,5,5h[4:1],{16}8,1,{8}2V83[4:1],,4,4,,5,5V71[4:1],,3,3-7[8:1],,7,,
6-1[8:1],6,2,2-6-4[4:1],,8,8,,7,7-5[8:1],,3,3-8[8:1],,4,,5,5h[4:1],{16}8,1,{8}2-7-1[4:1],,4,4,,
5,5^8[8:1],,3,3-1[8:1],,8,,27,36,45,{16}45,3,2,1,8,7,6,5,{2}4hb[4:1],{8}7,5,6,4,5,5,3,3,4h[4:1],,2,2,
{2}1h[4:1]/4h[4:1],{8}2,4,3,5,4,4,6,6,5h[4:1],,7,7,{8}8h[8:1]/5h[8:1],,8bx/5bx,,7,5,6,4,5,6,4,3,
5^8[4:1],,1,1,1,7,6,5,4,3,5,6,74,{16}6,5,,3,4,,{4}3-7[8:1]/4-8[8:1],34,

{16}8,1,2,3,7,6,5,4,1,2,3,4,8,7,6,5,2,3,4,5,1,8,7,6,3,4,5,6,7,8,1,2,
4,5,6,7,81,2,3,4,1,2,3,4,2,3,4,5,8,7,6,5,7,6,5,4,1,2,3,4,{4}2h[4:1],
{16}1,8,7,6,2,3,4,5,8,7,6,5,1,2,3,4,7,6,5,4,8,1,2,3,6,5,4,3,2,1,8,7,
5,4,3,2,18,7,6,5,8,7,6,5,1,2,3,4,{12}1,1,2,2,3,3,4,4,5,5,6,6,

{2}7h[2:1],{8}6h[4:1],,5,5h[8:5],,8,8V64[2:1],,{2},3h[4:1],2h[4:1]/4h[4:1],
{8}1/3q5[2:1],,,2x,,2x,,,{2}6h[2:1],{8}5h[1:1],,7,7,,8,8V64[2:1],,{2},
{8}2hx[4:1],,8,8,,57,57,5q3[2:1]/7v4[2:1],{1},{4}2,3,2/4h[1:1],{8}2,2,,1,1V35[2:1],,{2},
{2}6h[4:1],5h[4:1]/7h[4:1],{8}8/6p4[2:1],,,7x,,7x,,,{4}35,4,2h[1:1]/4,{8}4,4,,3,3^4-7[2:1],,{2},
{8}4hx[8:7],,7,7,,8,8,8,,1,1-4[8:1],,{2}3,

{8}4h[4:1]/6h[4:7],,,4h[4:1],,,5h[4:1],,,7h[4:1],,,{4}1,1qq3[4:3],
5,5,5,5^8[2:1],2,2,2h[2:5],{16}E8,B7,B6,B5,
{8}4hx[4:1],,,4h[4:1],,,3h[4:1],,,1h[4:1],,,8,,6,,
5,6,7,8,{16}8,7,6,5,4,3,2,1,{2}Ch[2:1],{4},2-7[8:1]/7-1[8:1],

7/2V46[4:1],28,{8}7x-3[8:1],1-5[8:1],7>5[4:1],1,7,,,3v8[8:1],7-4[8:1],3,7,2-6[8:1],,
12,8^3[8:1]*^5[8:1],,8,,26,2h[8:5]/6V41[8:1],,6,,,8,,1,1,
28,{24}28,3,4,{8}5,7,7h[8:1],5,3,2,71,{24}71,6,5,{8}4,2,2h[8:1],4,6,7,28,28,,3-6[8:1]/7-2[8:1],26,37,,,

71,{4}7/1-5[8:1],1b/6b-2[8:1],6b/3b-8[8:1],3b/5bh[1:2],{8},
{32}E3f,B3,B4,E5,{4},{32}E7,B7,B8,E1,{4},{32}1,2,3,4,{4},{32}1,8,7,6,{8},{32}1,2,3,4,{8},8b,
{4}1v4[8:1]/5-8[8:1],15,{16}8x,4,8x,4,7,3,7,3,{4}6v1[8:1]/2-5[8:1],62,{16}1x,5,1x,5,8,4,8,4,
{8}3/7-2[8:1],,37,4-8[8:1],,46,7-4[8:1],8x,7,2-5[8:1],1,2,8p4[8:1],1,{4}8,
1x^4[8:1]/5x^8[8:1],15,{8}3x/7x,3-8[8:1]/7-4[8:1],,37,,,4b/8b,2bh[4:1]/6bh[4:1],,,2-5[8:1]/6-1[8:1],,
{1}2<3V57[2:3]/6>7V13[2:3]/B2/E3/B6/E7f,,

{8}2/6h[4:3],,,5,5,5,5,,7,7,4,4,8,8V64[4:1],{2}3h[4:1],{8}1,2,3,4V28[4:1],,6,6,,7,6,5,
4h[1:1],,3,3,3,,2-7[8:1],2,2,,,71,7/1-5[8:1],2,1b/6b-2[8:1],7,6b/3b-8[8:1],4,3b/5bh[1:2],,,
{32}D1f,B8,B6,D6,{4},{32}A6,B5,B4,A3,{4},{32}1,2,3,4,{4},{32}1,8,7,6,{8},{32}1,2,3,4,{8},8b,
{4}2-5[8:1]/6-1[8:1],26,{16}1x,5,8,4,7,3,6,2,{4}1^4[8:1]/5^8[8:1],15,{16}8x,4,7,3,6,2,5,1,
{8}8x-4-2[8:1]/4,,68,7V51[8:1],,75,{4}3,4^1[8:1]b/8^5[8:1]b,48,{8}3v8[8:1]/7v4[8:1]b,26,37,,
4x/8x,51,62,,48,{2}3v8[8:1]b/7^4[8:1]b,{8},1b/5b,3b/7bh[8:3],{4},3^8[16:3],

{16}3bx/7bx,6,5,4,7,6,5,4,1,2,3,4,2,3,4,5,8,7,6,5,1,2,3,4,8,7,6,5,43,2,1,8,
5,6,7,8,2,3,4,5,1,8,7,6,8,7,6,5,7,6,5,4,6,5,4,3,5,4,3,2,{4}4hb[4:1],
{16}6,5,6,5,7,8,7,8,4,3,4,3,1,2,1,2,5,4,5,3,5,2,5,1,5,2,6,3,7,4,8,5,
1,2,3,4,51,62,73,84,5,6,7,8,15,26,37,48,{12}5,5,7,7,5,5,7,7,1,1,3,3,{1}6x-2[4:15]*V42[4:15],,,,E

Re:MASTER


  • 追加しました。修正等ありましたらよろしくお願いします。 -- けもがみ (2024-08-31 06:28:47)
名前:
コメント:

タグ:

+ タグ編集
  • タグ:
最終更新:2026年04月11日 18:54