| アーティスト |
Pizuya's Cell feat.中村さん |
BASIC
ADVANCED
EXPERT
MASTER
(184)
{16}3x,5,4,5,4,5,3x,5,4,5,4,5,3x,5,4,5,3x,5,4,5,4,5,3x,5,4,5,4,5,3x,5,4,5,
3x,5,4,5,4,5,3x,5,4,5,4,5,3x,5,4,5,3x,5,4,5,4,5,3x,5,4,5,4,5,3x,5,4,5,
2x,6,5,6,5,6,2x,6,5,6,5,6,2x,6,5,6,2x,6,5,6,5,6,2x,6,5,6,5,6,2x,6,5,6,
{8}4x/7x,47,35,35,26,26,17,17,{16}8,1,2,3,8,7,6,5,{32}2,3,4,5,6,7,8,1,{8}2x/6x,,
3b/5b,4,6,8h[4:1],,6,5,7,46,5,3,1h[4:1],,3,4,2,
35,3,3,74,7,7,26,1h[4:1],,8x,3/7x,4,5x/6x,4b/8b,{4},
6/2-5[8:1],6,6/4-1[8:1],6,7/8-3[8:1],7,7/2q5[2:1],7,8,7,56,4/7^2[4:1],
2^5[4:1],5^8[4:1],8^3[4:1],3>5[2:1],4h[2:1],,,35,
6/2-5[8:1],1,3/7-4[8:1],8,2/1-4[8:1],5,7/8-5[8:1],4,
1/2h[4:1],{8}4,35,,78,6/2^5[8:1],,8-4[8:1],,3V52[16:3],,5,7-3[8:1],,78,,
12,38,,56,56,3/7^4[8:1],,1-5[8:1],,6V47[16:3],,4,2-6[8:1],,12,,78,16,,34,34,2/6p4[16:7],,
6/4h[4:1],,,1x-5[8:1],,,6xp4[16:7],,6/4h[4:1],,,1x-5[8:1],,,6x,,
{6}4/A8,4/A7,4/A6,5/A3,5/A2,5/A1,{4}4w8[8:1],4,26,E3/E4/B4f/E5/E6,
{8}7x/8x,1,78,6,54,3,{16}2,1,{8}2,38,4,56,7,{16}2,1,2,1,8,7,{8}6b,
34,45,56,1b,34,45,56,1b,{16}34,5,6,7,4,3,2,,8,1,8,1,{8}2b/7b,,
56,45,{16}3,4,3,4,2,5,2,5,1,6,1,6,8,1,2,3,8,7,6,5,{8}4-8[8:1]b/2-5[8:1],42,,,
{16}1,8,7,6,1,2,3,4,{8}5-1[8:1]b/7-4[8:1],57,,,
{16}8,4,8,4,1,5,1,5,{8}2x-5[8:1]/6xv1[8:1],3x/7x,2b/6b,,
8h[4:1],5,5,7h[4:1],4,4,56,7,1h[4:1],4,4,2h[4:1],5,5,43,2,
18,6,18,3,{24}A6,E7,E8,A8,,,A3,E3,E2,A1,,,E5,C,E1,,,,
{16}2,7,2,7,2,7,2,7,{4}1xs5[8:1]b/8xz4[8:1]b,
E1f,27,{8}35,4,{4}5-1[8:1]/7-5[8:1],57,2/B4/E5,8/A6/B6/E6,1q5[8:1]/2^5[8:1],
12,1q5[8:1]/2^5[8:1],12,{8}8-4[8:1],1,{4}2^5[8:1],2/7p3[8:1],7/1w5[8:1],1,
3b/7b,6pp5[16:5],46,2pp1[16:5],82,6pp5[16:5],46,2h[4:1],
1<3[4:1],3xV57[16:3],1<3[4:1],3xV57[16:3],1,3x,{16}2,1,2,,7,8,7,8,{8}1b/6b,,
34,6,{4}8/2-4[8:1],2/5-1[8:1],57,2/B4/E5,8/A6/B6/E6,12,
4-8[8:1]/5-7[8:1],45,5-1[8:1]/4-2[8:1],54,8/7^4[8:1],7/2q6[8:1],2/8w4[8:1],8,
2b/6b,3-8[8:1]/7-4[8:1],37,{8}1,{4}2/8^5[8:1],8/1^4[8:1],18,{8}57,46,35,
2/4-8[8:1],,1,{4}1-5[8:1],1/6<4[16:5],46,{8},1,,{12}2,4,3,6,5,7,
{8}48,4/8h[4:1],,5,4/6h[4:1],,3,2/4h[4:1],,1,{4}8/2-5[8:1],7-4[8:1],1h[4:1],
3h[4:1],5h[4:1],{16}7,6,5,4,1,2,3,4,{4}8,6/A5/B5,2/D4/E4,8^3[8:1]/A6/E6,
78,{16}5,6,7,8,4,5,6,7,3,4,5,6,2,3,4,5,1,2,3,4,{8}8,8w4[8:1]b,,Cf,,,
26,26,{16}3h[16:3],,,4,3,,25,,6h[16:3],,,5,6,,74,,35,,,12,,,38,,
7h[16:3],,,8,7,,61,,2h[16:3],,,1,2,,{8}38,47,6,52,3,{16}46,,,78,,,16,,
3h[16:3],,,4,3,,25,,6h[16:3],,,5,6,,74,,2h[16:3],,,1,2,,38,,7h[16:3],,,8,7,,61,,
{8}25,3,47,6,45,36,2-5[8:1]/7-4[8:1],18,27,,{16}1,8,2,7,3,6,4,5,2b/7bx,,,,
54,3,2,1,87,6,5,4,1,2,3,4,56,7,8,1,{4}2/3^6[8:1],3/8^3[8:1],8/5^8[8:1],45,
{16}12,3,4,5,8,7,6,5,43,2,1,8,4,5,6,7,{4}8/3>5[4:1],5,4V28-6[4:1],1,
{8}5,5,4,7,7,8^5[8:1],5,8,,1^4[8:1],4,1,,8<1[8:15],1,8,{1},{4},,,
{16}E3,E4,E5,E6,{1}E7,,{2}E3/E4,E6/E7,{8}43,2,1,56,7,8,34,2/6<4[4:1]b,,{48},,,,
A7,A8,A1f,A2,A3,,,,{8},5x/6x,4x,{4}3x/7xqq8[16:5],71,3xqq4[16:5],35,7hx[4:1],
8>6[4:1],6xV42[16:3],8>6[4:1],6xV42[16:3],8,7x/8x,{16}6,5,7,,2,1,2,1,{8}3b/8b,,
56,7,{4}8/2-4[8:1],2/5-1[8:1],57,2/B4f/E5,8/A6/B6/E6f,1/A2/B2f/D3/E3,
7x/5^2[8:1],{8}8,6,2x/4^7[8:1],,1,3,{4}8-5[8:1]/5-2[8:1],85,1-4[8:1]/4-7[8:1],14,
5/8^5[8:1],8/1^4[8:1],{8}4,5,6,{4}3-5[8:1]/7-1[8:1],7-3[8:1],{8}1,1,24,35,46,
7/5-1[8:1],,8,{4}8-4[8:1],8/3>5[16:5],35,{8},8b,,{12}7,5,6,3,4,2,
{8}15,15,,37,37,4,6,8,2-5[8:1],,6,7-4[8:1],,4,3,2,
{4}1h[4:1],7h[4:1],{16}5,4,3,2,8,7,6,5,{4}1,3/A4f/B4,7/A5/D6/E6f,1<5[4:1]/B2/B3/E3f,
5>1[4:1],1x<5[4:1],5>1[4:1],1x<5[4:1],5>1[4:1],1x,{8}8,8w4[8:1]b,,Cf,,,
{4}6/2-6[8:1],2/1-5[8:1],1/8-4[8:1],8/7-3[8:1],7/2-6[8:1]b,{8}8,8,1b/7b,,
{24}4bx,5,3,{8}4,12,{24}5bx,4,6,{8}5,87,{16}1bx,2,3,4,
56,7,8,1,5,4,3,2,{32}18,7,6,5,4,3,2,1,{8}8b/Cf,,
71,2^5[8:1],6,8h[4:1],,6,5,7,28,7^4[8:1],3,1h[4:1],,3,4,2,
7-3[8:1],8,7,2-6[8:1],1,2,8,17,,3x/4,1x/5,2,5/6x,8xqq5[8:33]/4qq1[8:33],,{1}8b/4b,,,,E
Re:MASTER
- 追加しました。修正等ありましたらよろしくお願いします。 -- けもがみ (2024-09-17 13:56:15)
最終更新:2026年04月12日 09:11