| アーティスト |
Bitplane feat. 葉月ゆら |
BASIC
ADVANCED
EXPERT
MASTER
(90)
{4},,,{16},,,{80}E1,B1/B8,B2/B7,B3/B6,B4/B5,E5,,,,,{8},{4},,,
{80}E1,E2/E8,E3/E7,E4/E6,E5,4x/5x,,,,,{8},{16},,,
{2}4h[8:1],{16}E2/B2,4,4,,{4},{16}B6/E7,4,,4,,4,4h[8:1],,E2/B2,,
{4}4>6[4:3],{2}5,6qq3[1:1],2,3>7[2:1],7<3[2:1],3s7[2:1],{4}7>6[4:3],{16}4,4,{8}4,5,5,
{4}6qq4[4:1],4<2[4:3],6h[4:1],,2qq8[4:1],8>6[4:3],2h[4:1],,6q3[2:1],4,3>6[2:1],5,
6p2[4:1],2<3[4:3],{16}5,5,{8}5,4,4,{4}3pp1[4:3],E1/B8,{8}7,8,{4}1^7[4:1],
7pp5[4:3],B4/E5,{8}3,4,{4}5^3[4:1],3v6[4:1],6qq3[2:1],{8}B1/B2,B7/B8,{4}3^8[4:1],
8^5[4:1],5<4[4:3],{16}4,4,{8}4,5,5,4qq8[4:3],5,{4}5-7[8:1],,8^5[4:1],
{8}5pp1[4:3],4,{4}4-2[8:1],,1^4[4:1],4q5[2:1],7,5p4[2:1],2,Ch[4:1],,{16}27,27,{8}27,8h[32:1],1h[32:1],
3/7b-1[16:1],26,4,35,2/6-4[16:1],4V68[12:1],6,1h[16:3],{16},
8,1,8,{8}7/2-4[16:1],5-1[16:1],2,5,{16}2,1,3/8h[16:3],,,
1,8,1,{8}2/7-5[16:1],3-1[16:1],7-3[16:1],3,7,{16}15,15,,
7,8,7,{8}6/1-5[16:1],8-6[16:1],1-3[16:1],8-4[16:1],1,8,
6/2^8[16:1],3,{16}5,5,,37,{8}3^5[16:1]/7,6/5p1[12:1],2,8h[16:3],{16},
1,8,1,{8}2/7^5[16:1],5/4q8[16:1],2,{16}4,7,{8}7,1h[16:3]/5,{16},
8,1,8,{8}7/2^5[16:1],3/6^1[16:1],2pp6[16:3],,,{16}8,8,,
7,8,7,{8}6/1q5[16:1],3/8^5[16:1],1^4[16:1],8p4[16:1],,,
{16}3,4,5,6,{8}5-1[16:1]/7h[16:1],4-8[16:1]/2h[16:1],57,42,{16}1,1,8/2^8[16:1],,,
4,2-5[16:1],,5,5,2^8[16:1],,6,6,2-6[16:1],7,{8}7,26,{16},
48,15,,8v5[16:1],1,4v1[16:1],5,{8}8,4,{16}8,8,1/7-1[16:1],,,
5,{8}7^4[16:1],4h[16:1],7-1[16:1],3h[16:1],{16}7p3[16:1],2,{4}2h[8:1],{16},
1,2,3,{8}2h[16:1]/4-6[16:1],7h[16:1]/5-3[16:1],2,7,{16}8,8,{8}1/7-1[16:1],
26,7/3^5[16:1],2,3/7^1[16:1],6,7/3-7[16:1],2,37,{16},
2h[8:1]/6h[8:1],,,8-4[16:1],7,1-5[16:1],2,{8}B8,B1,{16}48,37,2^8[16:1]/6,15,{8},
{8}6^4[16:1],37,2-8[16:1],37,6-2[16:1],37,C,
48,3/5h[8:1],{16}7,5,3,5,7-3[16:1],5,3-7[16:1],5,{8},,
51,6/4h[8:1],{16}2,4,6,4,2q7[16:1],4,6,{4}4,
{80}E1,B1/B8,B2/B7,B3/B6,B4/B5,E5,,,,,{16},,,18,7,6,5,{8}4/8-4[16:1],3v2[16:1]/5v6[16:1],8,,
8,48,{16}15,2,3,4,{8}1/5-1[16:1],2v3[16:1]/8v7[16:1],5,,
5,46,3h[16:5]/7h[16:1],4h[16:1],6h[16:3],5h[16:1],47,25,
4,35,2h[16:1]/6h[16:1],3h[16:1]/7h[16:1],
4-8[16:1]/8-4[16:1],1-5[16:1]/5-1[16:1],4^2[1:1]/8^6[1:1],,{1},,E5,,,,E
- 追加しました。修正等ありましたらよろしくお願いします。 -- けもがみ (2024-09-22 03:49:03)
最終更新:2024年09月22日 03:49