BASIC
ADVANCED
EXPERT
(220)
{2}3-5[8:1],7-5[8:1],2-4[4:1],8-6[8:1],
{8}3x,3x,5x,,6x,6x,4x,,3x,3x,5x,5x,4x,4x,5,,
{2}6-4[8:1],2-4[8:1],7-5[8:1],1-3[8:1],
{8}6,6,4,,3,3,5,,6,6,4,4,5,,
{4}4/6,5b/6b,7,3/4,2,
{8}7,7,5,5,6,6,4,,
{4}3/4,2,5/6,7,
{8}2,2,4,4,3x,3x,3x/5x,,
{4}5b/7b,8,2/4,1,
{8}7,7,4,4,5,5,2,,
{4}2/4,1,5/7,8,
{8}2,2,5,5,4x,4x,4x/6x,,
{4}3,3/4,2,1/2,1v4[4:1],,,,3,3/4,1,1/2,2qq5[2:1],,,,6,5/6,7,7/8,8<4[8:3],,,,5,5/6,
{8}7,7,5,,
{4}4/6,3/5,4/5,3b/6b,3,3/4,
{8}6,6,5,,2,,2/4,,7,7,5,,3,,2/4,,6,6,5,,
{4}3,2/8,6,1/7,6,5/6,
{8}3x,3x,3x/4x,,7,,5/7,,2,2,2/4,,6,,5/7,,3x,3x,2x/4x,,
{4}6b,7b,1b/8b,,6x/4xh[2:3],7x,6x,7x,6x,7x,B4/B5/Ch[4:5],,,,,,2,2,2,,3/5,4/6,3/5,4/6,3/5,4/6,3/5,4/6,3/5,4/6,3/5,4/6,3/5,6/4>6[2:1],,,5x,5,3,5,4w8[8:3],,,,
{8}2x,2x,4x,4x,3,3,5,5,4,4,6,6,5x,,
{4}1b/8b,7x-5[8:1],8x-4[8:1],7x-5[8:1],8x-4[8:1],7x-5[8:1],8x-4[8:1],7x-5[8:1],8x-4[8:1],7x-5[8:1],8x-4[8:1],7x-5[8:1],8x-4[8:1],7x-5[8:1],8x-4[8:1],7x-5[8:1],1,2-4[8:1],6,8-6[8:1],5,4qq2[4:1]*pp6[4:1],,,2x/6x,3b/4bh[4:1],1,6b/5bh[4:1],8,2b/4b,5b/7b,4b/5b,1b/8b,7x-5[8:1],8x-4[8:1],7x-5[8:1],8x-4[8:1],7x-5[8:1],8x-4[8:1],7x-5[8:1],8x-4[8:1],7x-5[8:1],8x-4[8:1],7x-5[8:1],8x-4[8:1],7x-5[8:1],8x-4[8:1],7x-5[8:1],3,2x,1/2,7/8,5/6,
{16}2h[16:3],,,4h[16:3],,,3,,7h[16:3],,,5h[16:3],,,
{8}6,,8x,8x,,
{4}1/2,5/4q5[2:1],,,,2b/7b,{1},,,,,,,,
{2}7h[1:6],3,4,5,6-8-4[4:5],,,,5,4,5,4,5p4[4:5],,,,2h[1:6],3,4,4,Ch[2:3],,,,8,6,4,5,3-7[4:3]b,,,
{4}6,4b/5b,3,2/4,
{8}6x,6x,5x/7x,,2,,2/4,,7,7,5x/7x,,2,,1/2,,7,7,7/8,,6,,5/7,,3x,3x,2x/4x,,
{4}7,6/8,2,1/3,4/8,5/7,4/6,
{8}1x/2x,1x/2x,1b/2b,,3,3,5,5,4,4,6,,
{4}7,8,,6,7,6,7,Cf,,,3b/6b,7x-4[8:1],8x-3[8:1],7x-4[8:1],8x-3[8:1],7x-4[8:1],8x-3[8:1],7x-4[8:1],8x-3[8:1],7x-4[8:1],8x-3[8:1],7x-4[8:1],8x-3[8:1],7x-4[8:1],8x-3[8:1],7x-4[8:1],2x,3x,2/8,5/7,2/4,1/8,5/7,3/4,1/2,3b-1[8:1]b/4bh[4:1],,5bh[4:1]/6b-8[8:1]b,,,3b/4b,7b/8b,5b/6b,7x-4[8:1],8x-3[8:1],7x-4[8:1],8x-3[8:1],7x-4[8:1],8x-3[8:1],7x-4[8:1],8x-3[8:1],7x-4[8:1],8x-3[8:1],7x-4[8:1],8x-3[8:1],7x-4[8:1],8x-3[8:1],7x-4[8:1],2,3x,1/2,7/8,5/6,
{16}3h[16:3],,,4h[16:3],,,2,,6h[16:3],,,5h[16:3],,,
{8}7,,8,8,,
{4}5/7,2/4,5h[8:1]/6h[8:1],5h[8:1]/6h[8:1],7h[8:1]/8h[8:1],7h[8:1]/8h[8:1],3h[8:1]/4h[8:1],3h[8:1]/4h[8:1],1h[8:1]/2h[8:1],1h[8:1]/2h[8:1],5h[8:1]/6h[8:1],7h[8:1]/8h[8:1],3h[8:1]/4h[8:1],1h[8:1]/2h[8:1],5h[8:1]/6h[8:1],7h[8:1]/8h[8:1],3h[8:1]/4h[8:1],1bh[8:1]/8bh[8:1],2b/7b,4/5,6,5/6,7,7/8,2,1/2,3,3/4,6,5/6,7,7/8,
{8}2,2,1,,
{4}7,7/8,6,5/6,3,3/4,2,1/2,7,7/8,6,5/6,3,3/4,
{8}1,1,,8,3h[2:1],,,,
{4}6h[2:1],5,2h[2:1],4,7h[2:1],5,2h[2:1],3,7h[2:1],6,2h[4:1],4,
{8}7,7,5,,,3h[8:3],,,
{4}6h[2:1],8,3h[2:1],2,6h[2:1],7,4h[2:1],1,5h[2:1],8,4h[2:1],2,5h[2:1],7,B4,B3,B2,B1,B8,B7,B6,B5,E4,E3,E2,E1,E8,E7,E6,A4/B4/E4,A5,A6,A7,A8,A1,A2,A3,A4,D6,D7,D8,D1,D2,D3,D4,B2/B3/B6/B7/C/E3/E7,
E
MASTER
(220)
{2}4h[8:3]/6h[8:3],{8}46,,,35,,3h[4:1]/5,,4,4,,35,,{2}5h[8:3]/3h[8:3],{8}53,,,64,,6h[4:1]/4,,5,5,,64,,
{2}4h[8:3]/6h[8:3],{8}46,,,35,,3h[4:1]/5,,4,4,,35,,6,6,4,4,5,5,3,3,{4}7,1-4[8:1]/8-5[8:1],,3x/6x^1[8:1],
3^8[8:1],5v2[8:1],4v7[8:1],6^1[8:1],3^8[8:1],5v2[8:1],4v7[8:1],
6^1[8:1],3^8[8:1],5v2[8:1],4v7[8:1],6,{8}1,1,26,,8,8,{4}7/3^8[8:1],
6^1[8:1],4v7[8:1],5v2[8:1],3^8[8:1],6^1[8:1],4v7[8:1],5v2[8:1],
3^8[8:1],6^1[8:1],4v7[8:1],5v2[8:1],3,{8}4,4,{4}6,7-5[8:1]/1-4[8:1],7x/1x,
3x^8[4:1],6,7^4[4:1],1,{8}2,2,{4}4,1v4[8:1],5,7-5[8:1],1-3[8:1],8-4[8:1],2,2,1-5[8:1],1b/8b,3b/7b,
6^1[4:1],4,2^5[4:1],{8}6,7,{4}7h[4:1],5h[4:1],4h[4:1],2h[4:1],5,34,47,56,{8}3,3,{4}5,26,3b/7b,
2-5[8:1],2x/8h[4:1],2-5[8:1],2x/6h[4:1],2-5[8:1],2x/8h[4:1],2-5[8:1],2x/6,
2-5[8:1]/8,2x/8,2-5[8:1]/1,2x/1,2-5[8:1]/8,2x/8,2-5[8:1]/6,2x/6,
2-5[8:1]/8-4[8:1],2x/8x,2-5[8:1],2x/6x,2-5[8:1]/6h[8:1],2x/8h[8:1],2-5[8:1]/1h[8:1],2x/8h[8:1],
2-5[8:1]/6h[8:1],2x/8h[8:1],2-5[8:1]/1h[8:1],2x/8,A7/B7/E7/A6f,A2/B2/E3/A3f,B4/B5/E5f/D5,1b/8b,
{4}3h[2:3]/6,8,6,8,5,8,A6/B6/D7/E7/A7/B7,{8},5x,{4}5xw1[4:1],,,2xpp5[2:1],6,7,8-4[8:1],8,
2h[8:1]/5h[8:1],7h[8:1]/4h[8:1],2h[8:1]/5h[8:1],7h[8:1]/4h[8:1],2h[8:1]/5h[8:1],
7h[8:1]/4h[8:1],2h[8:1]/5h[8:1],7h[8:1]/4h[8:1],{8}25,3,47,6,25,3,47,6,25,3,4q5[2:1]/7,6,{4}5,,
6,7,{16}7h[16:3],,,6h[16:3],,,{8}5,{4}5,4,3/5s1[8:3],E4f,
{8}2,2,2,2,8,8,8,8,3,3,3,3,{4}1-6[8:1]b/2-5[8:1]b,A1/D2f/A2,
{8}7^4[8:1],7,8v3[8:1],8,7^4[8:1],7,8v3[8:1],8,7^4[8:1],7,8v3[8:1],8,6,6,1b,,
7^4[8:1],7,8v3[8:1],8,7^4[8:1],7,8v3[8:1],8,7^4[8:1],7,8v3[8:1],8,6,6,1b,,
8-6[8:1],8,2-4[8:1],2,1-5[8:1],1,{4}3,4v3-1[4:1]*v5-7[4:1],,,2b-5[8:1]/6b-1[8:1],
2x/6x,7b-4[8:1]/3b-8[8:1],7x/3x,1-5[8:1],1-6[8:1]*-7[8:1],1-4[8:1]*-3[8:1],1-5[8:1]b,1x,
{8}7^4[8:1],7,8v3[8:1],8,7^4[8:1],7,8v3[8:1],8,7^4[8:1],7,8v3[8:1],8,6,6,1b,,
7^4[8:1],7,8v3[8:1],8,7^4[8:1],7,8v3[8:1],8,7^4[8:1],7,8v3[8:1],8,6,6,1b,,
{2}2v5[8:1]/8v5[8:1],7v4[8:1]/1v4[8:1],{16}2h[16:3],,,3h[16:3],,,4,,7h[16:3],,,6h[16:3],,,5,,
{4}2x-6[8:1],8v3[8:1]*v5[8:1],,2x/6x,26,1-5[8:1]/7-3[8:1],1x/7x,2bhx[4:15]/6bhx[4:31],{1},,,,,,,{2},
4,1h[4:3],{4},2,2h[4:3],,,3-8V25-7[1:1],{1},D7f,{4}8h[4:3],,,7,7h[4:3],,,6pp5pp4pp3[2:3],{1},,
{4}1h[4:3],,,2,2h[4:3],,,4,4h[4:3],,,5,{2}5,45,{1}6p8-3q7^2qq3[2:3]b,,
{2}1hx[1:1],8hx[2:1],{4},2-5[8:1]/7-4[8:1],2b/7b,8b/1b-5[8:1],
1x,2-5[8:1]/6,2x/6,2-5[8:1]/8,{8}2x/1x,1x,2-5[8:1]/1x,,2x/8x,8x,2-5[8:1]b/8x,,
2x/6b,,2-5[8:1]/1,1,2x/1,1,2-5[8:1]/1,1,2x/1,1,2-5[8:1]/1,1,2x/1b,,2-5[8:1]/8,,
2x/6,,2-5[8:1]/8,,2x/1x,1x,2-5[8:1]/1x,,2x/8,,2-5[8:1]/6,,2x/6,,2-5[8:1]/8,,
2x/1bx,1bx,{4}2-5[8:1]/1bx,2x/8,37,1x/8x,1x/8x,D1/E1f/B1/B8/B2/B7/E3/E7/A3/A6/D4/D6,
4hx[4:3]/5hx[4:1],{2},A7/B7/D7/E7/A6/B6,{8}8b,8b,8b,8b,8b,,2b/6b,,
7^4[8:1],8v3[8:1],7,8,7^4[8:1],8v3[8:1],7,8,7^4[8:1],8v3[8:1],7,8,7,8,1b/6b,,
7^4[8:1],8v3[8:1],7,8,7^4[8:1],8v3[8:1],7,8,7^4[8:1],8v3[8:1],7,8,7,8,{4}1b/6b,
2h[8:1]/7h[8:1],3h[8:1]/8h[8:1],2h[8:1]/7h[8:1],6h[8:1]/1h[8:1],
4h[8:1]/7h[8:1],3h[8:1]/6h[8:1],2h[8:1]/5h[8:1],1-5[8:1]/6-2[8:1],
1x/6x,8-4[8:1]/3-7[8:1],8x/3x,2x-7[8:1]/5x,2b/6-3[8:1],6b/4-1[8:1],4b/5-8[8:1],3b/5b,
{8}7x^4[8:1],8v3[8:1],7,8,7^4[8:1],8v3[8:1],7,8,7^4[8:1],8v3[8:1],7,8,7,8,1b/6b,,
7^4[8:1],8v3[8:1],7,8,7^4[8:1],8v3[8:1],7,8,7^4[8:1],8v3[8:1],7,8,7,8,1b/6b,,
{2}8qq8[4:1],1pp1[4:1],{16}6h[16:3],,,7h[16:3],,,8,,1h[16:3],,,2h[16:3],,,3,,{4}14,58,36,1-5[8:1]/8-6[8:1],
8-4[8:1]/1-3[8:1],1-5[8:1]/8-6[8:1],8-4[8:1]/1-3[8:1],1-5[8:1]/8-6[8:1],
8x-4[8:1]/1x-3[8:1],1x-5[8:1]/8x-6[8:1],8x-4[8:1]/1x-3[8:1],1x-5[8:1]/8x-6[8:1],
8bx-4[8:1]/1bx-3[8:1],1bx-5[8:1]/8bx-6[8:1],8bx-4[8:1]/1bx-3[8:1],1bx-5[8:1]/8bx-6[8:1],
8-4[8:1]/1-3[8:1],1-5[8:1]b/8-6[8:1]b,18,1b/8b,
3b/7b,2pp5[2:1],6,7,{8}8x-3[8:1],8x-5[8:1],,,4x-7[8:1],4x-1[8:1],,,
{4}8,7qq4[2:1],3,2,{8}1x-6[8:1],1x-4[8:1],,,5x-2[8:1],5x-8[8:1],,,
{4}1,2pp5[2:1],6,7,{8}8x-3[8:1],8x-5[8:1],,,4x-7[8:1],4x-1[8:1],,,{4}8,26,3-8V25-7[1:1]b/5,4,{1}B5/B6/E6f,
{4}5-1[8:1]/6,57,{16}7,8,,16,,,{8}25,1-5[8:1],8,7,6,7-5[8:1],8,1,2,
{4}4-8[8:1]/3,42,{16}2,1,,83,,,{8}74,8-4[8:1],1,2,3,2-4[8:1],1,8,7,
{4}5-1[8:1]/6,57,{16}7,8,,16,,,{8}25,1^4[8:1],8,7,6,7-5[8:1],8,1,2,
{4}4-8[8:1]/3,42,{16}2,1,,83,,,{8}74,8,1,28,3,45,6,{4}27,
6-4[8:1],6/E4,7-5[8:1]/E3,7/E2,6-4[8:1],6/B4,7-5[8:1]/B3,7/B2,
6-4[8:1],6/E4,7-5[8:1]/E3,7/E2,6-4[8:1],6/B3,7-5[8:1]/B2,7/B1,
3-5[8:1],3/E6,2-4[8:1]/E7,2/E8,3-5[8:1],3/B5,2-4[8:1]/B6,2/B7,
3-5[8:1],36,2-4[8:1]/7,{8}27,{8}6,5,4,3,2,1-4[8:1]/8b-5[8:1],,{1}1x/8x,,,,E
Re:MASTER
- 追加しました。修正等ありましたらよろしくお願いします。 -- けもがみ (2024-09-22 16:53:55)
- EXPERT譜面を追加しました。修正等ございましたらよろしくお願いいたします。 -- やさいたち (2026-08-02 17:14:04)
最終更新:2026年08月02日 17:14