アットウィキロゴ

美夜月鏡

アーティスト かゆき

BPM BASIC ADVANCED EXPERT MASTER Re:MASTER
164 5 7+ 12 14 -

EXPERT MASTER Re:MASTER
譜面制作者 はっぴー ロシェ@ペンギン -

BASIC


ADVANCED


EXPERT


MASTER

(164)
{16}4b/8b,,7,5,,6,{4}4-8[8:1],{16}34,,1b,,2,4,,3,{8}5,56,78,12,34,{16}5,4,5,4,
7hx[8:3],,A6,D6,A5,D5,A4,,7,,65,,3^8[8:1],4,3,4,{4}3^6[8:1],3,
{16}7x/8x,,1,8,,18,,18,,,{4}78,{16}1x/2x,,8,1,,18,,7,4,6,3,5,2,4,
1hx[8:3],,A3,D4,A4,D5,A5,,2,,34,,6^3[8:1],5,6,5,{4}6^1[8:1],6,
{16}3x/4x,,5,4,,45,,{16}4/5h[16:3],,,8,5,1,6,2,7,3,8-4-8[4:1],4,4h[8:3],,8x,{8},,,

{16}1bx/3bx,,,45,,45,,5bx/7bx,,,45,,45,,3,4,3,4,2h[16:7],,,E5,,E3,,E1,,
8,7,6,54,,{4}3/6h[4:1],{16}7x,6,7,6,7,6,7,6,7,6,7,6,7,6,7,6,,,
1hx[8:1]/6hx[8:1],,,2h[8:1]/6h[8:1],,,{8}36,47,47,
{16}8hx[8:1]/3hx[8:1],,,7h[8:1]/3h[8:1],,,{8}63,52,52,
1x/6xpp4[2:1],,4,3,2,1,8xpp4[2:1],,4,5,6,7,8-3[8:1]*-4[8:1],,8x,,,
{16}1h[8:1]/3h[8:1],,,1-5[8:1]/3h[8:1],,,{8}1x,,,{16}8h[8:1]/6h[8:1],,,8-4[8:1]/6h[8:1],,,
{8}8x,7,6-2[8:1],5,4,3,12,34,56,78,{16}2,1,2,1,{4}2qq5[2:1],2x/1hx[2:1],,{8},

8-4[8:1],7,8x/6hx[4:1],,{16}3,6,4,6,4,6,5,6,5,6,8,1,2,3,4x-8[8:1]/7x-5[8:1],,,4x/7x,{8},,,
1-5[8:1],2,1x/3x,,{16}3,6,2,7,1,8,1h[8:1]/2h[8:1],,,3h[8:1]/4h[8:1],,,56,,
7h[8:1]/B4,,,1h[8:1]/B5,,,8h[8:1]/E4,,,2h[8:1]/E6,,,7h[8:1]/E5,,,3s7[16:5]/C,{4},,,
{16}2h[8:1]/B5,,,8h[8:1]/B4,,,1h[8:1]/E6,,,7h[8:1]/E4,,,2<5[4:1]/C,,{2},{16}7,8,1,2,3,4,8,1,2,3,

{8}4h[16:3]/5-7s3[8:7],,,3h[16:3],,,2h[16:3],,,1h[16:3],,,8h[4:1]/1,,4,,
5h[16:3]/4-2z6[8:7],,,6h[16:3],,,7h[16:3],,,8h[16:3],,,1h[4:1]/8,,5,,
{16}47,,,47,,,{4}1h[4:1]/6,{16}8,2,4,1,7,5,8,4h[16:3],,,
7,,,25,,,{4}8h[4:1]/3,{16}1,8,2,6,5,7,3,4,2,,
38,,,38,,,{4}1h[4:1]/5,{16}8,2,5,1,7,4,8,7,6,5,
43,,,43,,,{4}7/1-6[8:1],{16}1x/2x,,3,4,5,6,7,8,,,
1x/7x,,2,2h[16:3],,,4,3,5,4,{8}6^1[8:1],,,{16}2,3,4,5,6,7,8,1h[16:3],,,
8,4,7,4,6,4,5,4,3,4,2,4,1,4,8hx[8:1],,,1/3h[16:3],,,7,6,5,4,3,2,1,8h[16:3],,,
2,1,3,8,4,7,5,6h[16:3],,,{8}4,35,24,{2}1x-6[8:1]/3x-6[8:1],

{8}1hx[16:3]/8xqq3[8:7],,,2h[16:3],,,3h[16:3],,,4h[16:3],,,4/5h[8:3],{16}A6,B6,C,B2,{8}A2,
8hx[16:3]/1pp6[8:7],,,7h[16:3],,,6h[16:3],,,5h[16:3],,,5/4h[8:3],{16}A3,B3,C,B7,{8}A7,
2b/8b,{4},7/1s5[8:5],,,{8}8,7,6,5h[4:5],,,D8,D7,D6,D5,D4,D3,,
{4}8^6[4:1],6^4[4:1],4^2[4:1],2p8[2:1],,,4h[4:1],{8}8,7,{4}6-8[8:1]/5-1-3[4:1],,,
{16}5b/8b,,,47,,,{2}3/6pp5[4:1],{16},,4b/1b,,,52,,,{2}6/3q5[4:1],{16},,
8b,,8,3,,3,{8}5-3[8:1],5x-7[8:1],5x-1[8:1],5x,5x,
{16}8b,,8,3,,3,5h[4:1],,{32}D3,D4,D5,D6,D7,D8,D1,D2,3x,4x,5x,6x,7x,8x,1x,2x,

{8}3x/6b,,18,{16}2,1,2,,7,7/5>8[16:5],,2,{2}2h[8:3]/5,
{16}6,5,6,,2,24,,7,74,,{4}1h[8:1]/8h[8:1],2h[8:1]/4h[8:1],
{16}57,,4,5,,2,{8}2/8V62[16:3],3,4,{16}5,5,,1x/5x>1[16:3],,,1,8,7,6,5,,
{4}2-4[8:1]/5-1[8:1],25,{16}8,,8,3,,3,8,,1/7h[8:3],,8,1,2,3,4,5hx[16:5],,,
1-5[8:1],8,7>4[4:1]b,,1,,{8}7x,,,{16}6,7,8,1,2,3>6[16:5]b/6,,,45,,{8}3x,,,
{16}4,3,2,1,8,72,,,45,,1,5,2,6,3,7,4,8,5,,37,37,,,45,,{2}1bw5[4:3],,,

{4}B2/B3,E2/C,B7/E1,{16}E7,B6,B5,E5,E3,B2,B1,E1,E6,B5,B4,E4,
A7,E8,B8,B1,E2,A2,A8,A7,A6,A5,A4,A3,A2,A1,8x,7x,6x,5x,4x,3x,2x,1x,8x,7x,6bxpp1[8:5]/2bxpp5[8:5],,{1},
{4}3h[2:1]/7,{16}E1,E2,E3,E4,E5,E6,E7,E8,3x,4,5,6,7,8,,,{4}12,78,8/1>5[4:1],,
{24}B1/B8,B7,B6,B5,B4,B3,B2,A1,A8,A7,A6,A5,A4,A3,A2,A1,A8,A7,4x,5x,6x,7x,8x,1x,2x,3x,4x,

{16}5bx/8bx,,,18,,18,,2bx/4bx,,,18,,18,,6,5,6,5,
7h[16:7],,,E1,,E3,,E5,,8,7,6,54,,{4}3/6h[4:1],{16}7x,6,7,6,7,6,7,6,7,6,7,6,7,6,7,6,,,
{16}1hx[8:1]/6hx[8:1],,,4h[8:1]/6h[8:1],,,{8}36,25,25,
{16}8hx[8:1]/3hx[8:1],,,5h[8:1]/3h[8:1],,,{8}63,74,74,
5x/6xpp4[2:1],,4,3,2,1,8xpp4[2:1],,4,5,6,7,8-3[8:1]*-4[8:1],,8x,,,
{16}1h[8:1]/3h[8:1],,,1-4[8:1]*-5[8:1]/3h[8:1],,,{8}1x,,,{16}6h[8:1]/8h[8:1],,,6-2[8:1]/8h[8:1],,,
{8}6x,7,8-4[8:1],1,2,3,56,78,12,34,4-7[8:1],2-6[8:1],4>8[4:1]b,2,4b,,,

2,2/6h[8:1],1,2/5h[8:1],8,24,{16}4,3,,3,{8}8-4[8:1],4-8[8:1],8,1,2,
7/3h[8:1],8,7/4h[8:1],1,57,{16}5,6,,6,1,,7,4,6,4,5,4,3,4,2,4,1,4,8,4,7,4,
{8}6h[8:1],5h[8:1],7h[8:1],1h[8:1],4h[8:1],3-1[8:1]*-8[8:1],3,
{4}3x-5[8:1]*-6[8:1],3x>6[4:1]b*p6[4:1]b,3b,,{16},,
2,4,1,7,5,8,2,7,1,8,3,4,1,8,5,6,2,5,1,5,2,6,1,6,3,4,2,6,5,7,4,5,
{24}1b,2,3,8,7,6,2z6[4:1],3,4,7,6,5,{2}2x,

{16}1b-3[8:1]/7b,,,5,{4}5/1-6[8:1],1-4[8:1]/5^8[8:1],15,
{16}8-6[8:1]/2,,,4,{4}4/8-3[8:1],8-5[8:1]/4^1[8:1],84,
(151){2}8b-3[8:1]/4b-7[8:1],
(142){2}4-1[8:1]/8-5[8:1],
(128){4}2/6h[196:113],
(98){8}B2/B3/E3,B6/B7/E7,
(89){1}8V25[1:1]*z4[1:1],{8},,,{1}8xz4[8:1],,,,E

Re:MASTER


  • 追加しました。修正等ありましたらよろしくお願いします。 -- けもがみ (2024-09-26 19:55:28)
名前:
コメント:

タグ:

+ タグ編集
  • タグ:
最終更新:2026年04月11日 18:08