BASIC
(150)
{1},,,,8,7,6,5,4,3,2,1/8,
{2}1,1,2,2,3,3,3/4,,5,5,6,6,7,7,7/8,,8h[2:1]/7h[2:1],,8/7,,6h[2:1]/5h[2:1],,6/5,,4h[2:1]/3h[2:1],,4/3,,2h[2:1]/1h[2:1],,2/1,,
{4}1b,1,1,,2,,2,,3,3,3,,4/5,,4/5,,5bx,5,5,,6,,6,,7,7,7,,1/8,,1/8,,
{4}2,2,2,,2/1,,2/1,,7,7,7,,7b/8b,,,,
{1}1-5[4:3],,8-4[4:3],,2-6[4:3],,7-3[4:3],,B1,B8,B2,B7,B3,B6,Ch[1:1],,
{2}8h[1:1]/1h[1:1],,,8/1,{4}2,2,2,,2/1,2/1,2/1,,7bx,7,7,,7/8,7/8,7/8,,1,1,1,,1/8,1/8,1/8,,8b,8,8,8,7,7,7/8,,6,6,6,6,5,5,5/4,,4,4,4,4,3,3,4/3,,2,2,2,2,1,1,1/8,,{1}2h[8:47]/7h[8:47]
E
ADVANCED
(150)
{1},,,,{4}2x,2,2/1,,3,3,3/4,,5,5,5/6,,7/8,7/8,7/8,,7,7,7/8,,6,6,6/5,,4,4,4/3,,2/1,2/1,2/1,,
{2}2h[2:1],1,2/1,2/1,3h[2:1],4,3/4,3/4,6h[2:1],5,6/5,6/5,7h[2:1],8,7/8,7/8,{4}B7,B6,B5,,B2,B3,B4,,B8,B7,B6,B5,B4,B3,B1/B2,,E8,E7,E6/B5,,E2,E3,B4/E4,,Ch[1:1],,,,,,,,
{4}2,2,1,1,8,8,8/7,,6,6,7,7,8,8,1/2,,2,2,3,3,4,4,5/6,,7,7,6,6,5,5,4/3,,
{4}2,2,3,3,4,4,5,5,6,6,7,7,8x/1x,8x/1x,8b/1b,,
{1}2-5[8:4],6-3[8:4],2-6[8:4],7-4[8:4],2q5[4:5],,7xp4[4:5],,{2}3h[2:1],4h[2:1],5h[2:1],6,6h[2:1],5h[2:1],4h[2:1],3,3h[2:1],4,6h[2:1],5,4h[1:1]/5h[1:1],,,,
{4}5,5,5/4,,3x,3x,2bx/4bx,,3,3,2/1,2/1,8,8,8/7,,6,6,7/8,7/8,1,1,1/2,,2,2,3/4,3/4,5,5,5/4,,3,3,2/1,2/1,8,7,6/5,,6,6,7/8,7/8,1,2,3/4,,2,2,3/4,3/4,5,6,7/8,,7,7,6/5,6/5,4,3,2/1,,1xh[4:6]/8xh[4:6],,,,,,,,1xpp4[16:35]/8xqq5[16:35],,,,,,,,,,,,Ch[8:7],
E
EXPERT
MASTER
(150){4}
,,C,,
A8,A1,,3^6[8:1]/7p2[8:1],
A3/A4/A5/A6/B3/B4/B5/B6/D3/D4/D5/D6/D7/E4/E5/E6,1bxh[8:1]/8bx,{16}7^6-3b[8:1],,8,8,{4},
1b-4[8:1]/2b,1b/8b-5[8:1],7b-3-6b[16:3]/8b,E2,
{16}1b,,6,4,{8}5,5,35,5,56,5x,
58,5,25,5,58,5,25,5x,
46,{16}7,1,{8}8,8,28,8,58,8,
48,8,58,8,4pp5b[8:1]/7pp1b[8:1],36,,,
8b,{16}3,5,{8}4,4,46,4,34,4x,
14,4,47,4,14,4,47,4x,
35,{16}2,8,{8}1,1,17,1,14,1,
1h[8:1]/5h[8:1],,3h[8:1]/8h[8:1],,4v5b[8:1]/7v8b[8:1],36,,,
{24}7,6,7,6,7,6,7,,,,,,2,3,2,3,2,3,2,,,,,,
7,6,7,6,7,6,7,,,,,,2,3,2,3,2,3,{4}2,
6,8pp2[4:1]*qq6[4:1],,,
Ch[4:1],,{8}2xv5[8:1]/7x-2[8:1],1x/8x,A7f,,
3b/8b,,1b/6bpp3[2:1],,2,2,{4}2,
1h[4:1],4h[4:1],5h[4:1],8^3b[8:1]*v5b[8:1],
8^6[8:1],4pp4[4:1],4-1[8:1]*-8[8:1],,
A5/A6/B5/B6/D6f/E6,A1/A2/B1/B2/D2f/E2,A7/A8/B7/B8/D8f/E8,B3/B4/B5/B6/Cf,
1,7,5,B2/B3/E2/E3f/E4,
8h[8:3],,{8}1-3[8:1]/7-5[8:1],2b/8b,1b/7b,,
2v4[8:1]/8-2-6[8:1],,,,1v3[8:1]/7-1-5[8:1],,,,
8,8,6,1,3,{24}A6,A5,A4,{8}A3,,
2,14,2,13,2-5[8:1],14,,,
47,{16}8,8,5,5,7,,6-3[8:1],,48,,,,,,
2x,1x,8x,7x,6x,7x,8x,1x,2x,1x,8x,7x,6x,7x,8x,1x,
{8}2x/Cf,,,,2^4[8:1]/7^5[8:1],18,2x/A7f,,
2-6-3-5[8:3],1h[8:5]/4,,,,,6,6,
7-5-8-4[8:3],5/8h[8:5],,,,,B3,,
1^4[8:1]/7^4[8:1],{16}8,8,{8},,2^4[8:1]/6^4[8:1],8/C,,,
7^2[8:1],1,4-1[8:1]/7,,4b/5-8[8:1],,5b,,
A1/A2/A3/A4/B2/B3/D2/D3f/D4/E2/E3/E4,,6-3[8:1],6,1^4[8:1],1,5^8[8:1],5,
2q6[8:1],2,7V16-3[8:3],7,1h[2:1],,,,
2,1q6[8:1]/3-6[8:1],48,1V75[8:1],,,,4,
,26,2^7[8:1]/6^3[8:1],,2b/6b,,1-4[8:1]/5v8[8:1],,
15,,3h[8:1]/7h[8:1],,18,{16}2,2,4,,35,,
35,,26,,2h[8:1]/6h[8:1],,,,17,,6,6,4,,3,,
2,6,4,5,3,4,3,6,4-2[8:1]*-6[8:1],7,1,,{4},
A1/A7/A8f/B1/B7/B8/D1/D8/E1/E8,A2/A3/A6/B2/B3/B6/D3f/D6/D7/E3/E6/E7,4-2b[8:1]/5-7b[8:1],A4/A5/D5f/E4/E6,
1bh[8:5]/8b,,{8},4,,7,
{4}5,8h[4:1],5,4v7^6-4qq2-4^5[8:7],
,,,,
8v3[8:1]*v5[8:1],,{16}26,,7x,1x,{4}4x,
5h[4:11],Chf[1:2],,,
B1,,,,
B8,,1x^4[4:1],,
6,7,5v2b[8:1]/7-2b[8:1],A5f,
2x-7[4:7]/3x-6[1:1],,,,
,,,{16}4,,,3,
{4}3-6[2:1],,2-7[4:3],,
4,{16},,,5,{4}5,46,
3h[4:1]/8h[4:1],{32},4x/7x,5x/6x,,{8},1h[4:1]/6h[4:1],,{32},2x/5x,3x/4x,,{8},
2bh[4:1]/8bh[4:1],,{32},3bx/7bx,4bx/6bx,5bx,{8},1bh[4:1]/7bh[4:1],,{32},2bx/6bx,3bx/5bx,4bx,{16},,
3x,4x,5x,6x,7x,6x,5x,4x,3x,4x,5x,6x,7x,6x,5x,4x,
{2}3xh[4:3],B2,
8-4[2:1],,
{8}2b/B6f,8b/B4f,1b/B5f,7b/B3f,2bq6[8:1]/6b,1b/7b,E1,,
1-4[8:1]/7-4[8:1],{16}8,8,{8},,2-4[8:1]/6-4[8:1],7/E1,,,
3v8[8:1]/4-7[8:1],25,3-1[8:1],,3b/5-8[8:1],6b,5b,,
A1/A2/A3/A4/B2/B3/D2/D3f/D4/E2/E3/E4,,6-3[8:1],7,1^4[8:1],8,5^8[8:1],6,
2q6[8:1],1,7V16-3[8:3],8,1h[2:1],,,,
2,1-6[8:1]/3p6[8:1],48,1V35[8:1],,,,8,
,37,3^6[8:1]/7^2[8:1],,3b/7b,,4v1[8:1]/8-5[8:1],,
4-2[8:1]/8,,46,{16},8,{8}3^6[8:1]/8q4[8:1],,38,,
5,46,28,57,6bh[8:1]/7bh[8:1],,2bh[8:1]/3bh[8:1],,
1x-5[8:1],{16}8,1,{8}7-4[8:1],6,3-1[8:1],2,6,6,
5-1[8:1],3,3/5-7b[8:1],4-2b[8:1],5-1b[8:1],4qq8b[8:3],A5f,A4f,
,,1v6[8:1],1v4[8:1],,,7-2v4[4:1],7,
3,3,1,1,2-7[8:1]/6-3[8:1],48,26,,
1-7[8:1],1v4[8:1],,,6,,67,6^3[4:1]/7,
,7,8,1,2w6[8:1],{16},3x,2x,,,,
{1}4h[1:1]/8bh[1:2],,
{32}A3,D4,A4,D5,A5,D6,A6,D7,A7,D8,A8,D1,A1,D2,A2,D3,A3/A5/A6/B5/B6/D6/E6,,,,,,,,D8,A7,D7,A6,D6,A5,D5,A4,
D4,A3,D3,A2,D2,A1,D1,A8,D8,A7,D7,A6,D6,A5,D5,A4,1x/D4,,,,,,18,,{8},5qq4-8-2v1[4:5]/7,
57,6,8,,6,,7,7,
,5,5,,4,1-4[8:1]/5-8[8:1],,15,
{1},E
Re:MASTER
最終更新:2026年07月12日 13:00