アットウィキロゴ

イガク

アーティスト 原口沙輔 feat.重音テト

BPM BASIC ADVANCED EXPERT MASTER Re:MASTER
170 4 7 11 13+ -

EXPERT MASTER Re:MASTER
譜面制作者 みそかつ侍 鳩ホルダー -

BASIC

(170)
{1}1,1,1,,8,8,1x/8x,1x/8x,

{1}1h[1:1]/2h[1:1],,3h[1:1]/4h[1:1],,5h[1:1]/6h[1:1],,7h[1:1]/8h[1:1],,{2}8,8,7,,6,6,5/4,,4,4,3,,2x,2x,1x/8x,,{1}B1,B8,B2,B7,B3,B6,Cfh[1:1],,

{4}1b,1,1,,2,,2,,3,3,3,,3/4,,,,5,5,5,,6,,6,,5-8[4:3],,,,,,,,8b,8,8,,7,,7,,6,6,6,,5/4,,,,4,4,4,,3,,3,,2-6[4:3],,,,,,,,

{1}8-4[4:3],,1-5[4:3],,7-3[4:3],,2-6[4:3],,

{1}B8/B7,B6/B5,B4/B3,B2/B1,E1,B8/B1,B7/B2,Ch[1:1],,

{4}8,8,8,,7,7,7,,6b,6,6,,5,5,5/4,,3,3,3,,2,2,2,,1x,1x,,8x,8x,,1x/8x,,1b,1,1,1,2,2,1/2,,3,3,3,3,4,4,4/5,,6,6,6,6,7,7,7/8,,1,1,,8,8,,1x/8x,1xh[4:1]/8xh[4:1]
E

ADVANCED

(170)
{4},,,,4x,4,4,,3,3,3,,2,2,2,,1/8,,1/8,,7bx,7,7,,6,6,6,,5p4[4:5],,,,,,,,

{2}3xh[2:1],4h[2:1],5h[2:1],6,6h[2:1],5h[2:1],4h[2:1],3,2h[2:1],3h[2:1],4h[2:1],5,{4}6x,6x,6x/5x,,4x,4x,4x/5x,,3,3,3/4,,2,2,2/1,,8,8,8/7,,6/5,6/5,6/5,,6,6,6/5,,7,7,7/8,,1x/2x,1x/2,1x/2x,,3x/4x,3x/4x,3x/4x,,
{1}3-6[2:1],7-3[2:1],2-5[2:1],7-4[2:1],{2}3h[2:1],4,6h[2:1],5,4,5,4h[2:1]/5h[2:1],,

{4}6xb,6,7,7,8,8,1/2,,3,3,2,2,1,1,8/7,,7x,7,6,6,5,5,5/4,,3x,3x,3x/4x,5x,5x,4x/5x,4x/5x,,6bx,6,7/8,7/8,1,1,1/2,,3,3,2/1,2/1,8,8,8/7,,7,7,6/5,6/5,4,4,4/3,,2x,2x,2x/1x,8x,8x,8x/1x,8x/1x,,

{4}2bx,2,2,,3,3,3,,4,4,4,,5/6,,5/6,,7bx,7,7,,6,6,6,,5,5,5,,5/4,,,,

{1}3q5[4:5],,6p4[4:5],,{4}B2,B3,B4,,B7,B6,B5,,B2,B3,B4,B5,B6,B7,B8/B1,,,,,,

{4}7,7,7/8,7/8,1,2,3x/4x,,3b,3,2/1,2/1,8,7,6/5,,7x,7,6/5,6/5,4,3,2/1,,8x,8x,8x/7x,1x,1x,1x/8x,1x/8x,,7,7,7,7/8,6,6,6,6/5,4,4,4,4/3,2,2,2/1,,B1,B2,B3,B4,B5,B6,B7,,E1,E8,E7,E6,E5,E4,E3,E2,Cf,
E

EXPERT

(170)
{4}Ch[16:9],,,,1x/8x,
{8}3,3,4,,5,5,4,4,6,,
{4}7,1/7,8x,
{8}6,6,5,,4,4,5,5,2s6[8:3],,,,,,7x,,8,8,1,,3,3,4,4,2,,
{4}8,2/8,1b/6b,
{8}1bh[4:1]/6bh[4:1],,,
{4}3b/8b,3b/8b,1b/6b,
{8}3b/8b,3b-1[8:1]/8b-4[8:1],,,,
{4}6h[2:7],5,,
{2}5,7,7,5,5,
{4}4z8[8:3],,,7x,1/6,2,3/5,6,4/7,3,2/8,1b/6b,
{8}1bh[4:1]/6bh[4:1],,,
{4}3b/8b,3b/8b,1b/6b,
{8}3bh[8:3]/8bh[8:3],,,,,
{4}2x,2/4,6h[4:1],
{8}5,5-8[8:3]*>8[8:3],{1},
{4}1,2/8,3,
{8}2/4,4/2h[8:5],,5,5s1[8:3],,,,,,
{4}2x,3/8,7,
{8}4/6,4/6p2qq8[8:5],{1},{8}3b/8b,,3bh[4:1]/8bh[4:1],,,
{4}1b/6b,1b/6b,3b/8b,
{8}1b/6b,1b-5[8:1]/6b-8[8:1],,,,4xh[4:3],,,E4,,,E6,,4,4,4p5[8:3],,,,,,6h[4:3],,,E7,,,E5,,6,6,6<1[4:1],,,,,,D2f,B1,B7f,B5,D5f,,,,D8f,B8,B2f,B4,D5f,,,,B1f/B8,
{12}D2f/D8,,,,,
{8}B4/B5f,D4/D6f,,,E1/E5f,,
{24}E3f/E7,,,,,
{4}B4/B5/Ch[24:7],,7x-2[8:1]b,2x,
{8}3,3,4,,
{4}3/4,5/7,2h[4:1]/8h[4:1],,7-2[8:1]b,2x,
{8}3,3,4,,
{4}5/6,4>1[4:1]/8q5[4:1],,,1,2/8,
{8}3,3,4,,
{4}5/7,4/5,2h[4:1]/4h[4:1],,
{8}2b/3b,2b/3b,2b/3b,2b/3b,1b/4b,,2b/3b,2b/3b,2b/3b,2b/3b,1b/4b,,
{4}2b/8b,4/5,6x-3[8:1]b,,
{8}2,2,1,,
{4}1/2,6/8,3h[4:1]/5h[4:1],,6-3[8:1]b,3x,
{8}2,2,1,,
{4}7/8,1p4[4:1]/5<8[4:1],,,8,1/7,
{8}6,6,5,,
{4}2/4,4/5,5h[4:1]/7h[4:1],,
{8}6b/7b,6b/7b,6b/7b,6b/7b,5b/8b,,6b/7b,6b/7b,6b/7b,6b/7b,5b/8b,,
{4}1b/7b,4/5,2/7,
{8}6,6,5,,4,4,5,5,2,2,8,8,1/7,,2/8,,3,3,4,,5,5,4,4,7z3[8:3],,,,,,2x,,1,1,8,,6,6,5,5,7,7,4,4,3/5,,E6,B6,B7,E4,B4,B5,B3,B2,E2,E8,B8,B1,D1,,,,
{1}1bqq8<6qq5>3qq2[2:5]/8bh[1:2],,,
{8}5,5,4,6,3,,1x/7x,,6,6,4,4,8,7,3,3,5,5,1,2,6,6,5,,3/8,,1h[4:1]/6h[4:1],,,
{4}3/8,1/6,3/8,
{8}1h[8:3]/6h[8:3],,,,,
{4}B3/B4/B5/B6/Ch[2:1],,,,7x-2[8:1]b,2x,
{8}3,3,4,,3x/6x,3x/6x,
{16}4x,5x,4x,5x,4x,,,,
{4}1bx/8bx,7x-2[8:1]b,2x,
{8}3,3,4,,
{4}5/6,4>1[4:1]/8q5[4:1],,,
{8}1,1,2/8,,3,3,4,,
{4}5/7,4/5,2h[4:1]/4h[4:1],,
{8}2b/3b,2b/3b,2b/3b,2b/3b,1b/4b,,6b/7b,6b/7b,6b/7b,6b/7b,5b/8b,,
{2}1bh[4:1]/7bh[4:1],1-5[8:1]/2-5[8:1],7-4[8:1]/8-4[8:1],
{8}3/5,,1/8,7,5h[4:1]/6h[4:1],,,,
{4}5-1[8:1]/6-1[8:1],,3-8[8:1]/4-8[8:1],,1/7,
{8}4/5,3,2-4[8:1]/5-1[8:1],,,,8,8,3/7,,6,6,5,,
{4}2/4,4/5,5h[4:1]/7h[4:1],,
{8}6b/7b,6b/7b,6b/7b,6b/7b,5b/8b,,2b/3b,2b/3b,2b/3b,2b/3b,1b/4b,,
{4}2b/8b,4/5,2-4-8<5[8:13]/7-5-1>4[8:13],,,,
E

MASTER

(170){1}
1-7q5[2:1]/Ch[4:3],
{8}4bx/8bx,,2v5[8:1],2,1,1,,8,
8,2,2-4[8:1],6,6-4[8:1],,,,
3,3,4v7[8:1],4,1,1,,8,
8,5,5,6,{16}D5,D4,D3,D2,D6,D7,D8,D1,
{8}3b,3,4v7[8:1],4,1,1,,8,
8,5,5-3[8:1],7,7-5[8:1],,,,
3/4h[4:1],,A8/D8f/E8,,,5h[4:1]/6,,A1/D2f/E2,
,3/5h[4:1],,8,6-3[8:1]/7z3[8:1],67,,,

2x,,2,,7,6,3,4h[8:5],
,A3/E4,,,A5/E5,,46,,
57,,6,5,3,,24,24,
,57,5/7h[4:1],,{16}E6,E7,E8,E1,E2,E3,E4,E5,
{8}7,,57,,2,3,6,5h[8:5],
,A6/E6,,,A4/E5,,35,,
2q6[8:1]/4v7[8:1],,A2f/A4,,,5p1[8:1]/7p3[8:1],,A5f/A7,
,8w4[8:1],,A8f,,E3/E6,E3/E6,,
7x,,78,,2,1,7,8h[8:5],
,A7/E8,,,A1/E1,,28,,
13,,2,1,7,,68,68,
,13,1/3h[4:1],,{16}E2,E3,E4,E5,E6,E7,E8,E1,
{8}2,,12,,7,8,2,1h[8:5],
,A2/E2,,,A8/E1,,17,,
4w8[8:1],,A4f,,,5w1[8:1],,A5f,
,3/7h[4:1],,4,5^3[8:1]/6v4[8:1],56,,,

2h[4:3],,,,3,,3,2,
1h[4:3]/4,,4,,4,,4,2,
3/5h[4:3],,3,,3,,3,5,
{4}4/6h[2:1],4,4,35,
{48}B2,B3,B4,,,,B8,B7,B6,,,,A2,D3,A3,,,,A8,D8,A7,,,,{32}A1,B1,C,B5,{8}A5,8,8,
{48}B7,B6,B5,,,,B1,B2,B3,,,,A7,D7,A6,,,,A1,D2,A2,,,,{32}A8,B8,C,B4,{8}A4,3,2,
1x-4[8:1]*^2v4[8:1],1x,,,8x-5[8:1]*^7v5[8:1],8x,,,
3x/4,,1/8x,,6x-3[8:1]/7z3[8:1],,,,

2bx-6[8:1],2,{4}2/7-1[8:1],3-5[8:1]/7,3/6-2[8:1],
3-8[8:1]/6,3/6-8-5-1[4:1],1,3-7[8:1],
3/8-2[8:1],4-6[8:1]/8,4/7-4[8:1],3^6[8:1]/7,
3/7^2[8:1],3-6b[8:1]/7,3/7z3b[8:1],,
{8}2b-4[8:1],2,{4}2/5-1[8:1],3-8[8:1]/5,3/7-5[8:1],
4-8[8:1]/7,4/5qq3[8:1]*pp7[8:1],,2x/8x,
{8}1h[16:1]/7h[16:1],2h[16:1]/6h[16:1],1v4[8:1]/7v4[8:1],2h[16:1]/6h[16:1],1b/7b,,2h[16:1]/8h[16:1],3h[16:1]/7h[16:1],
2v5[8:1]/8v5[8:1],3h[16:1]/7h[16:1],2b-4[8:1]/8b-6[8:1],,2b/8b,,46,,
7bx-3[8:1],7,7{4}2-8[8:1]/7,2/6-4[8:1],3-7[8:1]/6,
3/6-1[8:1],2v5V38[4:1]/6,28,6-2[8:1],
1-7[8:1]/6,1/5-3[8:1],2-5[8:1]/5,2/7^4[8:1],
3^8[8:1]/7,3/7z3b[4:1],3-6b[8:1],,
{8}7bx-5[8:1],7,{4}4-8[8:1]/7,4/6-1[8:1],2-4[8:1]/6,
2/5-1[8:1],4qq2[8:1]*pp6[8:1]/5,,17,
{8}2h[16:1]/8h[16:1],3h[16:1]/7h[16:1],2v5[8:1]/8v5[8:1],3h[16:1]/7h[16:1],2b/8b,,1h[16:1]/7h[16:1],2h[16:1]/6h[16:1],
1v4[8:1]/7v4[8:1],2h[16:1]/6h[16:1],1b^3[8:1]/7b^5[8:1],,1bs5b[8:1]/7b-3b[8:1],,,,

2b/6b,,3,4-8[8:1],5,6,,7,
6,5,4v1[8:1],3,2^5[8:1],,,,
7,7,6,5-1[8:1],4,3,,2,
3,4,5,6,{16}D4,D3,D2,D1,D5,D6,D7,D8,
{8}4b,3,2,1^4[8:1],8,7,,5,
6,7,8^5[8:1],1,2-5[8:1],,,,
4xh[4:1]/6h[2:3],,,1xh[4:1],,,5xh[4:1],,
,8xh[4:1],,,7x,,{64}A6/A7`E8,E6`B8,B5`C,B4`B1,E4,A3,,,{8},

{4}1bx-7v2^3-6^4[2:3],,,,
,,,7v6-4[2:1],
2h[8:7],,,{8}4,4h[4:1],
,A2/B2,D6/E6,D4/E4,A7/B7,D5/E5,E1f,,
46,46,{16}3,5,3,5,3,7,3,7,3,1,3,1,
3,7,3,7,3,5,3,5,3,7,{8}3,4x^1[8:1]/8x^5[8:1],,
4q8[8:1]/8q4[8:1],,48,,,3v8[8:1]/7^6-4[8:1],,37,
,2^3-5[8:1]/6v1[8:1],,26,,48,4/8z4[8:5],,
{1}Ch[8:5],

{8}1-6[8:1]/7,2-4^5b[8:1]/8,1,2,7-2[8:1],3-6[8:1],7bx,3bx,
8xh,1xh/7xh,{16}D3,D7,D4,D6,{8}1w5[8:1],28,,,
3b^8[8:1]/7b^4[8:1],37,{4}3-7[8:1]/7,1V35[8:1]/3,1/8-4[8:1],
2-5[8:1]/8,2/7z3b[4:1],3-6b[8:1],1x,
{8}2b-5[8:1],2,{4}2/4V68[8:1],3-7[8:1]/4,3/8x-2[8:1],
4^1[8:1]/8,4/7-4[8:1],27,16,
{8}7h[16:1]/8h[16:1],3h[16:1]/4h[16:1],7-3[8:1]/8-4[8:1],5h[16:1]/6h[16:1],7b/8b,,1h[16:1]/2h[16:1],5h[16:1]/6h[16:1],
1-5[8:1]/2-6[8:1],3h[16:1]/4h[16:1],1b^6[8:1]/2b^5[8:1],,1b/2b,,47,,
2b/8b-4[8:1],7,1-5[8:1],2,6^8[8:1],7,3V57[4:1],2,
7-4-2[4:1],,2<5[4:1],,5b-1[8:1],,8x,,
2-5[8:1],3,6-4[8:1],7,2-8[8:1],1,6<2<6[2:1],5,
3,,6-3b[8:1],,3z7b[8:1],,1x,,
2b^5[8:1],2,{4}2/6-1[8:1],4-8[8:1]/6,4/7V53[8:1],
1-5[8:1]/7,1/4-8[8:1],34,3/8x,
{8}1h[16:1]/2h[16:1],5h[16:1]/6h[16:1],1-5[8:1]/2-6[8:1],3h[16:1]/4h[16:1],1b/2b,,1h[16:1]/8h[16:1],2h[16:1]/3h[16:1],
1-5[8:1]/8-4[8:1],6h[16:1]/7h[16:1],{4}1b^4[8:1]/8b^5[8:1],1bs5[8:1]/8bz4[8:1],,
Ch[8:1],,,,E

Re:MASTER


名前:
コメント:

タグ:

+ タグ編集
  • タグ:
最終更新:2026年07月24日 16:09