アットウィキロゴ

Elemental Ethnic

アーティスト Yooh

BPM BASIC ADVANCED EXPERT MASTER Re:MASTER
163 6 8 12+ 14 -

EXPERT MASTER Re:MASTER
譜面制作者 Luxizhel サファ太 & 鳩ホルダー -

BASIC


ADVANCED


EXPERT


MASTER

(163)
{8}45,,35,3,35,,25,2,25,,35,3,35,,45,4,4x/5,,46,6,46,,47,7,47,,46,6,46,,45,5,
4/5x,,34,3,34,,45,5,45,,24,2,24,,45,5,4x/5,,34,3,34,,4z8[16:9]/5,4/5s1[16:7],{4}45,,,1x/8x,
3b/6b,{2}4h[4:5]/7-5[8:1],3-5[8:1],7-5[8:1],{8}4,4,3x/4x,,
{2}5h[4:5]/2-4[8:1],6-4[8:1],2-4[8:1],{8}5,5,46,,{2}3h[4:5]/7-5[8:1],2-4[8:1],7-5[8:1],{8}4,4,
35,,2,2,3/5h[4:1],,4s8[2:1]*z8[2:1],4,{4},,,1b/7b,

{16}26,,,3,4,,35,,35,,,3,4,,35,,35,,,2,4,,35,,6,5,,5,8,,7,,
4x/6x,,,6,5,,64,,64,,,6,5,,64,,64,,,7,5,,64,,3,4,,4,1,,2,,
{4}3h[16:3]/5h[8:1],4h[8:1]/6h[8:1],2h[8:1]/5h[16:3],4h[8:1]/7h[8:1],
2h[16:3]/4h[8:1],5h[8:1]/7h[8:1],1h[8:1]/2h[16:3],7h[8:1]/8h[8:1],
{8}1,1,28,28,{16}3,7,3,7,4,6,4,6,{8}5h[16:1],5h[16:1],5h[16:1],5h[16:1],{4}4/6-1[8:1]b,61,

3b/7bh[4:1],{16}5x,7,5,7,3x,7,3,7,1x,7,1,7,3x,7,3,7,5x,7,5,7,6x,7,6,7,8x,7,8,7,
2^5[8:1],1,,1,{8}2,8,7h[8:1],5h[8:1],6,6,{16}7^4[8:1],8,,8,{8}7,1,{16}2,4,2,4,{8}3,35,
6b/2bh[4:1],,{16}4,2,4,2,6,2,6,2,8,2,8,2,6,2,6,2,4,2,4,2,3,2,3,2,1,2,1,2,
7^4[8:1],8,,8,{8}7,1,2h[8:1],4h[8:1],3,3,46,46,{4}3v1[8:1]/7v1[8:1],3^5[8:1]/7^5[8:1],37,

8b/2bh[4:1],{16}4,2,4,3,4,,4x/5x,,6,5,7,5,7,,4x/8x,,7,5,7,5,6,4,6,4,5,4,6,5,
7^4[8:1],8,,8,{8}7,1,2h[8:1],4h[8:1],3,45,{16}6^1[8:1],5,,5,{8}6,3,1x-5[8:1]/2,38,12,,
8b/2bh[4:1],,{16}4,2,4,3,4,,4x/5x,,6,5,7,5,7,,4x/8x,,7,5,7,5,6,4,6,4,5,,5x/6x,,
7^4[8:1],8,,8,7,,3,,2h[16:3]/4x,,,1,,,1x/8,,
{4}1-3[8:1]/8x-6[8:1],1-5[8:1]/8-4[8:1],1^4[8:1]/8^5[8:1],18,

2b/7b-4[8:1],{8}1h[16:1],1h[16:1],1/2-5[8:1],,8h[16:1],8h[16:1],
8/7^4[8:1],,1h[16:1],1h[16:1],2h[16:1],2h[16:1],3h[16:1],3h[16:1],
3-8[8:1]/4,,5,5,5/6-1[8:1],,4,4,37,37,26,26,{12}1x-4[8:1]/5x-8[8:1],1x/5x,1x/5x,{4},
3b/7bh[4:1],{16}5,7,5,7,6,7,6,7,8,7,8,7,8,7,8,7,6,7,6,7,1,7,1,7,5,7,5,7,
{8}6,57,4,35,{16}2,1,3,8,4,7,5,6,4-8[8:1],,3,,{4}2-6[8:1],2/8x-4[8:1],8w4[8:1],

{32}8b<1[4:7],Cf,{16},,,{4},,,{1},{4}E1,C,E5,C,E1/E2,C/E3,E4/E5/E6,8x,
7V53[2:1],,1x,2,3V17[2:1],,5x,6,7V52[2:1],,8x,1,2-6[4:1],,8x,4h[16:1]/5h[16:1],

{16}3h[16:3],,,5h[16:3],,,4,,6h[16:3],,,4h[16:3],,,5,,
2h[16:3],,,4h[16:3],,,3,,7h[16:3],,,5h[16:3],,,6,,
2h[16:3],,,3h[16:3],,,4,,7h[16:3],,,6h[16:3],,,5,,
1h[16:3],,,3h[16:3],,,4,,8h[16:3],,,6h[16:3],,,5,,
4,5,4,5,4,5,4,5,3,6,3,6,3,6,3,6,4,6,4,6,4,6,4,6,3,5,3,5,3,5,3,5,
3,4,3,4,2,5,2,5,1,6,1,6,{32}1,2,3,4,5,6,7,8,{2}1h[2:1],{8}8w4[8:1],17,8,,

2b-5[8:1]/6b,{16}1,8,2,,6,6,5x,7,2,8,{8}1,26,7-4[8:1]/3,{16}8,1,7,,3,3,4x,2,5,3,{8}8-4[8:1],17,
8-3[8:1],{16}3,3,8-5[8:1],,5,5,8-4[8:1],,3,3,8,,1,,2,4,3,5,4,6,5,7,8,7,8,7,{8}1b/6b,4,
7b-4[8:1]/3b,{16}8,1,7,,3,3,4x,2,5,3,{8}8,17,2-5[8:1]/6,{16}1,8,2,,6,6,5x,7,4,6,{8}1-5[8:1],82,
1-6[8:1],{16}6,6,1-4[8:1],,4,4,1-5[8:1],,6,6,{8}1^4q6[2:1],7,{2}1x,{8}8,8,2b/6b,,

3b/5b,{16}1b,4,3,4,2b,6,5,6,1b,4,3,4,2b,5,4,5,1b,6,5,6,8b,4,3,4,1b,5,4,5,{8}8b,
2b/6b,{16}8b,5,6,5,7b,3,4,3,8b,5,6,5,7b,4,5,4,8b,3,4,3,1b,5,6,5,8b,,{4}2-7[8:1]b/6-3[8:1]b,
2b/6b,{16}15,,2,4,3,5,4,6,{8}5-2[8:1]*-8[8:1],46,5b,,37,{16}6,4,5,3,4,2,{8}3,12,
8-4[8:1],2-6[8:1],8,2,{16}1h[8:1],,,2h[8:1]/8h[8:1],,,37,,6,4,6,4,5,5,5,5,6-2[8:1]b,4,6,4,{4}6,

4b/8b,{8}3qq8[8:3],4,{16}5,5,,6,{8}6,7,1x/7x,17,6pp1[8:3],5,{16}4,4,,3,{8}3,2,
8x/2x,82,3qq8[8:3],4,{16}5,5,,6,{8}6,7,5x/7x,{16}7,5,6,4,5,3,{4}4hx[4:1],1x,
{16}3b/5b,,6,5,7-4^5-1[8:3],,7,,1,1,,2,2,,3,,1x/2x,,3,4,2-5[8:1],,2,,8,8,,6,6,,2b/8b,,
37,,6,5,7-4^5-1[8:3],,7,,1,1,,2,2,,3,,8,,8,17,{4}2qq8[8:1]/6pp8[8:1],2^4[8:1]/6^4[8:1],26,

{16}2b/6b,,1,4,3x,4,2,,7b/3b,,8,5,6x,5,7,,2b/6b,,3,5,2x,6,3,5,4w8[8:1],4,4,4,{8},,
2-5[8:1]/6-1[8:1],5,26,,7-4[8:1]/3-8[8:1],4,73,,
1-7[8:1]/5-3[8:1],26,{4}1^4[8:1]/5^8[8:1],1v4[8:1]*v6[8:1]/5,1b,
4bx/6bhx[4:1],{16}4,5,5,5,4,5,5,5,3,5,5,5,2,5,5,5,8,5,5,5,1,5,5,5,8,5,5,5,
{8}4x/6x,37,28,28,{16}1,1,1,1,28,28,28,28,
{4}3-8[8:1]/7-4[8:1],3^6[8:1]/7^2[8:1],3-7[8:1]b/7-3[8:1]b,3b/7b,
{1}A2/A4/A6/A8/B8/B1/B2/B4/B5/B6/Cf,,,,E

Re:MASTER


  • 追加しました。修正等ありましたらよろしくお願いします。 -- けもがみ (2024-09-29 03:14:37)
名前:
コメント:

タグ:

+ タグ編集
  • タグ:
最終更新:2026年03月29日 13:28