アットウィキロゴ

Chronomia

アーティスト Lime

BPM BASIC ADVANCED EXPERT MASTER Re:MASTER
227 6 8 12 14 -

EXPERT MASTER Re:MASTER
譜面制作者 鳩ホルダー サファ太 respects for 小鳥遊さん -

BASIC


ADVANCED


EXPERT

(227)
1b/8bh[1:8],E2,E3,E4,E5,E6,E7,E8,
1b>6[2:1],8<3[2:1],
{8}1x/2x,,,5x/4x,,,2x/6q8[4:3],,{1},
{8}2h[1:1],,,1,,,8,,8h[4:3],,,1,,,2,,
8h[2:1]/2h[2:1],,,,,,73,7qq5[2:1]/3pp5[2:1],{1},
{8}4x/2,,,8/1x,,,7/5x,,,8x/1,,,6b/2b,,,,

{4}4h[4:13]/3,3,2,2,1,1,8,8,1,1,2,2,3,3,43,54,
5h[4:12]/6,6,7,7,8,8,1,1,8,8,7,7,6qq5[2:1],,,,
7b/3bh[2:1],1,8h[2:1],1,2h[2:1],1,7h[2:1],8,
1h[2:1],8,6h[2:1],8,2,61,72,83,
4h[2:1],2,5h[2:1],7,3h[2:1],1,6h[2:1],8,
2h[4:1],3h[4:1],4h[4:1],5<4[4:3],,,,,

{8}8b/1b,,2,2,1,1,3,,7,7,8,8,6,,65,,
4h[4:1]/3h[4:1],,,43,,61,,83,,75,7/5p1[4:1],,,,,,
78,,54,,3,3,4,2,,78,,12,,73,73,,
65,65,,82,,,43,43,,7^4[8:3]/1p3[8:3],,,,,,,
12,12,,75,,,78,78,,2/4w8[8:3],,,,,,,

{4}6b/2b,62,7,7-3[8:1],1,1-5[8:1],8,8-4[8:1],3,3-8[8:1],6,6-1[8:1],2,2,12,83,
{8}7h[4:1]/4h[4:1],,,7p5[8:7]/4>6[8:7],,,,,{1},
{8}3,3,4,,2,12,,7,78,,6,65,,4,45,,
,,2x-6[8:1],,,7x-1[8:1],,,3x-5[8:1],,,6xp4[2:1],,,,,
,,3x-7[8:1],,,6x-4[8:1],,,2x-8[8:1],,,7x-4[8:1],,,1x>8[1:3],,
{1}Cf,,,,E7/C/E3,E8/E4,Ch[1:1],,

{8}8b/1b,,65,6/5^2[8:1],,8x,8x,,71,,43,4-7[8:1]/3,,1x,1x>8[4:3],,
{1},{8}1h[4:1],,3h[4:1],,5h[4:1],,7,,
81,,43,4^7[8:1]/3,,1x,1x,,82,,65,6/5-2[8:1],,8x,8x<1[4:3],,
{1},{8}8h[4:1],,6h[4:1],,4h[4:1],,2,,
81,,2,2h[4:1],,4,4,,53,,7,7h[4:1],,5,5,,8b/2b,,,6b/5b,,,4b/2bqq5[4:3],,
,,,,,,6,,7/5x^2[8:1],,,1^6[8:1],,,3,,4^7[8:1]/3,,,8^3[8:1],,,
6,,6h[2:1]/5h[2:1],,,,,,74,7^4[8:3]/4^1[8:3],,,,,,,1,,
2-5[8:1],,6,6,,84,84,,7-4[8:1],,3,3,,12,12,,
3-8[8:1],,7,7,,51,51,,6-1[8:1],,2,2,,43,43,,
2-6[8:1],,8,8,,57,57,,8-4[8:1],,2,2,,53,53,,
2,2h[4:1],,4,4h[4:1],,6,6h[4:1],,8,8,,57,,42,,
{1}8b/1b-7-3-5[4:3],E1/B8/B1,

4h[1:1],3h[1:1],2q4[4:5],,
5h[1:1],6h[1:1],{8}7,,,8,,,8s4[4:3],,{1},
{2}3h[1:1],A4/B4,6h[1:1],A5/B5,2h[1:1],A3/B3,7h[1:1],A6/B6,
1h[1:1],A2/B2,8h[1:1],A7/B7,1pp5[4:5]*qq5[4:5],,,,

{8}8b/3b-8[8:1],,7-4[8:1],,1,1,1,,6-1[8:1],,2-5[8:1],,8,8,8,,
7,7,5,5,4,4,2,2,7,7,5,5,4-8[8:1],,,,
1/7-4[8:1],,3-8[8:1],,5,5,5,,2-5[8:1],,6-1[8:1],,4,4,4,,
3,3,1,1,8,8,6,6,4,4,5,,63,,8b/1b,,
1-6[8:1]/2v5[8:1],,,,4,4,5,,7v4[8:1]/8-3[8:1],,,,5,5,4,,
1-5[8:1]/2-6[8:1],,,,7-3[8:1]/8-4[8:1],,,,5-1[8:1]/6-2[8:1],,,,3-7[8:1]/4-8[8:1],,,,
2,2h[4:1],,8,8h[4:1],,6,6h[4:1],,7,7,,68,,13,,5b^8[2:1]/4b^1[2:1],,,,,,,,
{12}1x,8x,1x,8x,1x,8x,{2}1bx,

{8}43,43,,12,12,,65,65,,78,78,,43,43,,65,65,,12,12,,78,78,,54,54,,12,12,83,83,83,
,6/5b,6/5b,,7b/1,7b/1,,4/3b,4/3b,,8b/2,8b/2,,7/6b,7/6b,,4b/2,4b/2,,8/1b,8/1b,,6b/4,6b/4,,5/3b,5/3b,6b/2,6b/2,7/1b,7/1b,7bh[8:9]/1b,
{1},8bp7<1[4:15],
E

MASTER

(227)
{8}6b,5,4,3h[8:5],{2},{8}6,5,4,3h[8:5],{2},{8}6,5,4,3h[8:7],{2},4h[4:1],2h[4:1]/3h[4:1],
1>8[8:15]/2,,{8}E5,,,E6,,,E7,,{1},{4}6h[4:1],5h[4:1],4h[4:1],3h[4:1],
1b,{8}2,2,4,3,6h[4:1],,5,4,3,4,5,6,37,,1bh[4:1],,,4h[4:1]/6h[4:1],,,Cf,,{2},{8}28,,3,4,
5h[4:1],,4,6h[4:1],,5,47,,8/1h[4:1],,8,2h[4:1],,1,3-6-2-5[4:3],,{4}4x,,,{8}8,8z4[8:5],{1},
{8}3h[4:1]/5h[4:1],,,5h[4:1]/7h[4:1],,,7h[4:1]/1h[4:1],,,3h[4:1]/4h[4:1],,,{16}2,1,2,1,{4}2>7[2:1],

8b,8,8,8,5/7h[4:1],5,5/3h[4:1],5,5/7h[4:1],{8}5,4,{4}35,15,2V86-1[4:3]/5,5,4,4,
4h[4:1],{8}E2,E5,E3,E6,{4}Ch[2:1],8,8,{8}78,78,78,,
16,,2,5,{4}3h[4:1],4,46,{8}37,3h[4:1]/7h[4:1],,,{16}2,8,2,8,
{4}2b^5[4:1],7,7,6,5/6h[4:1],{8}5,4,3h[4:1]/5,,5,6,
5/7h[4:1],,5,4,35,6,{4}5/7h[4:1],5,5V31[2:1]/6,7x,7x,
8,{8}8,1,7,8,{4}6^3[4:1],2,2,{8}2,1,3/8h[4:1],,
{32}B4,E5,,,,,,,{8}7x,7x^4[4:1],,1,1,,{16}1,2,3,4,8,7,6,5,2,3,4,5,6,7,8,1,

{4}2h[8:1]/5h[8:1],{16}3,4,3,,6,,3,4,3,,7,,3,4,3,,{8}8,8h[8:1],6,6h[8:1],5,5,
3b/4b-8[8:1],,1,2b-5[8:1],,7b^4[8:1],,8b,,1,2,3h[4:1],,5,46,,
{16}7,5,7,5,{8}6,34,34,21,18,8x/7x,,45,,{16}2,1,2,1,{8}2,38,,
45,4-7[8:1]/5,,6h[8:3],,,8,8-3[8:1],,4,4,,15,15,15,,
26,2/6-2[8:1],,4h[8:3],,,1,1-6[8:1],,4,4,,37,37,{4}37,

1b^6[4:1]/5b,6^3[4:1],3^8[4:1],8^5[4:1],5^2[4:1],2^7[4:1],7^4[4:1],4qq8[8:5],
8,,6,6<2[8:3],5h[4:1],,4,4>8[8:3]/7,5h[4:1],{8},6x,6hx[4:1],,8-4[4:1],,7h[4:1],,,8,8h[4:1],,4,,
3,5,3,7,5,7,1,2,34,,47,{16}6,5,{8}6,4b/7b,,8h[8:1],
{16}2,1,2,1,{8}3b-8[8:1],,6,6b-3[8:1],,1,1b-6[8:1],,4,4b,,56,56,,
{16}7,8,7,8,{8}6b-1[8:1],,3,3b-6[8:1],,8,8b-4[8:1],,2,2bh[4:1],,1,1V35V71>1>8[4:11],,
{1}4bhx[2:13],,,,E7,E8,{2}E1,2h[2:1],3h[2:1],4-8[8:1],

{8}1b,,2^5[8:1],1,2,8,7-4[8:1],,17,,8,1-5[8:1],2-4[8:1],1,2,8x,,
17,{4}1/7p3[4:1],8,1-4[8:1],1-6[8:1],1-5[8:1],1^6[8:1],1,
3b/5b,{8}2-4[8:1],4,2-6[8:1],8,2,,7-1[8:1],,7-5[8:1],5,7-3[8:1],8,7,1h[8:3],,
4,{4}4,2/1^6[8:1],4-2[8:1],4-6[8:1],4-8[8:1],4^7[8:1],4,

2bx/8bx,3>7[4:1],7>3[4:1],4,5h[4:1],{8}3,5,1,7,5^2[8:1],,
5b/6b,,7,7V51[4:1],,3,{512}3b,Cf,{256},{128},{64},{32},{16},{8},{4},2x/8x,{8}3,4,5,6,
7>3[4:1],,3q7[4:1],4,5,,1,,2<6[4:1],,6p2[4:1],5,{4}4,8-4[8:1],
8x,3-7[8:1],6V42-8[8:3],{8}1,1h[8:5],,,,,7x,,24,35,

6-1[8:1],6,5-2[8:1],5,7-4[8:1],7,1,,2-5[8:1],2,1-6[8:1],1,3-8[8:1],3,5,,
46,5,4,35,4^1[8:1],6,7^4[8:1],,8x,,23,2h[4:1]/3,,1,38,,
6-4[8:1],1,6,2-5[8:1],1,2,8,8,7^4[8:1],1,7,8^3[8:1],6,8,4h[4:1],,
2b,,6,5b/7b,,12,3b/8b,,57,46,3b/5b,,18,2b/7b,,56,{1}4b/7hb[1:1],{48}A3,E4,B4,B5,E6,A6,{8},{2},

{4}1h[4:5]/8,{1}Cf,2h[1:1],3<2[2:3],,4h[1:1],5h[1:1],6<5[2:3],,
{4}4/6h[4:1],5,4/7h[4:1],{8}5,5,6,3,{4}4,25,34,2h[4:1],4,3h[4:1]/5,{8}4,4,3,6,{4}5,7h[4:1],5,
4/6h[4:1],4,35,{8}3,4,{4}2h[4:1],3,34,4/5<4[1:1],{2}3hb[2:3],,,{8}4,,1^4[8:1],8,

1b-5[8:1],6-1[8:1],1,6,4,8,2^5[8:1],1,2b-6[8:1],7-1[8:1],2,7,3-8[8:1],4-7[8:1],3,4,
{16}1b,2,3,4,7,6,5,4,2,3,4,5,6,7,8,1,27,6,5,4,1,2,3,4,{8}8b,,7^4[8:1],1,
7-1[8:1],2-4[8:1],7,2,5-7[8:1],1-5[8:1],5,1,8-2[8:1],4-6[8:1],8,4,8-4[8:1],2,8,1,
6-4[8:1],8,6,2-6[8:1],1,2,8,,17,26,{4}3/5w1[8:1],5,3x/7x,

{8}8b-4[8:1],3-8[8:1],8,3,5,1,7^4[8:1],8,7b-3[8:1],2-8[8:1],7,2,6-1[8:1],5-2[8:1],6,5,
{16}8bx,7,6,5,2,3,4,5,7,6,5,4,3,2,1,8,72,3,4,5,1,2,3,4,1,8,7,6,5,4,3,2,
{8}8b/1b-5[8:1],,8,7b^2[8:1],,5,4b^7[8:1],,2,1b^4[8:1],,7,{4}6b-1[8:1],2-6[8:1]/6,
{1}2b/8h[1:1],{16}1,7,1,7,2,6,2,6,{8}4b,3b/5b,,,

56,4/7-4[8:1],,73,2-5[8:1],,27,8-4[8:1],,82,1-5[8:1],,16,7-4[8:1],,
57,3-6[8:1],,38,7-2[8:1],,75,4-7[8:1],,34,2h[4:1],,8,8,75,
64,5/3-7[8:1],,3/4b,5b-1[8:1],,5/1b,2b-6[8:1],,2/1b,8b-4[8:1],,8/1b,3b-6[8:1],,3/5b,7hb[4:1],,
6b,5b^8[8:1],,5/3b,2b^5[8:1],,2/8b,7hb[4:1],,6,45,34,25,36,47,5h[8:17]/8,{1},
{32}8b>8[4:15],B8,Cf,B4,A4,,,,{4},,,{1},{24}E6,E5,{1}E4,,,,E

Re:MASTER


  • 追加しました。修正等ありましたらよろしくお願いします。 -- けもがみ (2024-10-06 03:18:14)
名前:
コメント:

タグ:

+ タグ編集
  • タグ:
最終更新:2026年04月11日 21:34