| アーティスト |
void (Mournfinale) feat. 古泉葉月 |
BASIC
ADVANCED
EXPERT
MASTER
(163)
{2},4h[4:1]/6h[4:1],{8}4,5,3h[2:1],4h[8:3],,,,,{32}E3,B3,,,{8}5,4h[2:1],6h[8:3],,,,,
{8}B4/E5,6,7h[8:3],5h[4:1],,,{4}5/7qq8[16:9],4^1[16:5],,,18,
{8}2^5[4:1]/7b,,5,6,{4}7^2-6[2:1],5,4h[2:1],,6-4[8:1],2-6[8:1],
8h[4:1],{8}5,4,{4}3^8-4[8:3],5-7[8:1],,,{16}6,5,6,,4,5,{8}4,
3-1^8[4:1],,8-4[4:1],7,{2}6h[4:1],5h[4:1]/3-7-1[2:1],{4}4,4V68-3[2:1],1h[4:3],,,3>5[2:1],3h[2:1],,,46,
{8}35,6,7,82,3,4,53,2,1^2-4[4:1],1,8,7,6h[4:1],5,4h[8:1],5,
43,2,1,87,6,5,4,3,28,3/7-1[8:1],46,37,,2,2,3,
{4}2/4-1[8:1],3/4-7[8:1],4/8-5[8:1],1/8-3[8:1],8/4-1[8:1]*-7[8:1],4,35,4/6h[4:1],
{16}5,4,3,2,1,,65,4,3,2,1h[8:1],,7,8,7,8,7,6,5,4,1,2,3,4,1-5[8:1],8,7,6,{4}1b/5`Cf,
{2}7x>3[2:1],3<7V13[1:1],E4,E6,
{8}1h[4:1],,,2-5-3[16:5]/8h[4:1],{2},{8}8h[4:1],,,7-4-6[16:5]/1h[4:1],{2},
{8}1x,,47,{16}6,5,6,5,6h[8:1],,4,5,4,5,{8}4,,25,{16}3,4,3,4,3h[8:1],,5,4,5,4,
{4}5V71-3[4:3],3,1,7,{1}Ch[2:1],{48}1b,2p8[48:59]/8,37,4/6p4[48:57]b,5b,,,,,,,,{2},,,{4}1-5[8:1]b,
1b/8b,{8}6,57,18,{16}3,4,2,,8,,75,,3,4,2,,8,,17,,3,5,4,6,5,,
18,,6,5,7,,1,,24,,6,5,{8}7,1,28,46,3/7-3[8:1],28,7x,{16}2,2,,4,43,,
1/5x,,7,8,6x,,57,,4x/8,,2,1,3x,,24,,3x/5x,,6,5,7x,,8,8,1,,3,3,5-2[8:1]*-8[8:1],4,6,,
{4},3^5[8:1]/7^5[8:1],37,1,{8}26,35,{4}1pp4[16:5]/7qq4[16:5],17,,
{16}3b/5b,,2,1,3,1,2,,48,,6,5,7,5,6,,2b/8b,,1,7,1,7,1,7,2,6,2,6,3,5,3,5,
2,4,3,5,4,6,5,7,3,5,4,6,5,7,6,8,5,4,3,2,8,7,6,5,{12}1h,1h,1h,2h/8h,3h/7h,4h/6h,
{4}3bh/7bh,{16}1,1,8,8,6bh[8:1],,,5h[8:1]/7bh[8:1],,,2/4b,,
{4}8bw4[8:1]b/C,8b,{12}2^8[8:1]/6^8[8:1],26,26,{4}2-4[8:1]/6-4[8:1],2V86>2<4[4:5]b/6,{2}Cf,,,{8}35,,
2bh[8:3],,,3h[8:5],,,,,4h[8:3],,,5h[8:21],,,,,{1}6b>2[2:1],2>6[2:1],
{8}6h[8:3],,,7hx[8:5],,,,,8h[8:3],,,1h[8:19],,,{1}2<6[2:1],6<2[2:1],{4},
{16}3h[16:3]/5,,,4,3,,3,,3h[16:3]/5,,,4,3,,5,,6h[16:3]/4,,,5,6,,6,,6h[16:3]/4,,,5,6,,46,,
4,5,4,5,3,6,3,6,2,7,2,7,{24}1-5[8:1],8,1,8,1,8,{2}1b,{16}48,37,26,15,{4}8-4[8:1]/4,
8x/6-1[8:1],6b/2-5[8:1],2b/7-4[8:1],7b/3-8[8:1],3b/1-6[8:1],{16}1b/5^8[8:1]b,,,4,4/5b,,2b,,,2/1b,,,
{8}4-6[8:1]/8b,2/6b,4b-2[8:1]/8-4[8:1],,4b/8V62[4:1],,2x/8b,,
{16}1bh[16:3],,,3b,3b,,4b/5,,5bh[8:1]/6h[8:1],,,4h[8:1]/7bh[8:1],,,3b/8,,
{4}2b/1-4[8:1],{8}1b/8-5[8:1]b,7,{4}8b/6-3[8:1],4h[4:1]/6b,
1b,{12}2b-5[8:1]/8b,2b/8,2/8b,{6}2b/8,6b,4b,{8}3bv8[8:1]/5v8[8:1],2/6b,3b/5,,{16}1b,,,3/7b,,,5b,5b,
{4}5b<4[2:1],,,5w1[8:1]b,{1}E1/B1/B2/E3/B3/B4/E5/B5/B6/E7/B7/B8/Cf,,
{2}4-8V26[1:1]/5,5,6-2V48[1:1],7,8-4V62[1:1],1,2-6V84[1:1],3,
4-6^7[2:1],{4}7V13[2:1],{32}A1,B1,,,,,,,{4}3-5^6[2:1],,6,8h[4:1],
{16}E7,E6,E5,E4,E3,E2,E1,E8,5,4,3,2,1V72-6-3-5[16:13]b,8,7,6,
{1}5/1b,Ch[1:1],{2},{24}1-5[8:1]/8-4[8:1],27,36,45,,,{4}1b/8-6[8:1],
{16}1/8^2[8:1],,3,3,8-4[8:1],,5,5,{8}8,1,26,26,{16}37,8,1,2,3,4,5,6,73,2,1,8,7,6,5,4,
3/7b,,,2b/1,,,3,24,2b/4,,,6/7b,,,2,13,1/3b,,,5b/6,,,8,71,7/1b,,,3/4b,,,45,,
6,6,5,7,1,,3,3,4,2,8h[8:1],,1,7,1,7,{24}1b,2,3,45,,,8b,7,6,54,,,{16}2,5,3,4,{4}1b,
{12}2-5[8:1]/7-4[8:1],18,18,{8}2b/7b/B4/B5/Cf,,18,{16}7,8,6,1,5,2,4,3,6,5,7,4,1,2,8,1,7,8,{4}6hb[4:1],
{16}5h,7,5h,7,1h,5,3h,1,5h,7,1b,1b,4h,2,8h,4,6h,2,4h,8,6h,4,8b,8b,{8}1,34,16,16,
{24}8-4[8:1]/7v4[8:1],6,5,3,2,1,{8}7b/8b,,18,{16}2,1,3,8,4,7,5,6,3,4,2,5,8,7,1,8,2,1,{4}3hb[4:1],
{16}4h,2,4h,2,8h,4,6h,8,4h,2,8b,8b,5h,7,1h,7,5h,1,3h,7,
{24}2b,1,2,1,2,1,2,3,4,57,6,5,4/1-5-1[4:1]b,2,3,48,7,6,
{8}1b,8b^3[8:1],,{2}8b/2bh[8:5],{16}3,4,{1}5-8>5[16:13],,,,E
Re:MASTER
- 追加しました。修正等ありましたらよろしくお願いします。 -- けもがみ (2024-10-27 17:03:47)
- 神 -- 名無しさん (2024-10-27 23:11:48)
- 助かります。ありがとう。 -- 名無しさん (2024-10-28 23:39:04)
最終更新:2026年04月12日 09:30