アットウィキロゴ

シリウスの輝きのように

アーティスト 鳳 ここな(CV.石見舞菜香)、静香(CV.長谷川育美)、カトリナ・グリーベル(CV.天城サリー)、新妻八恵(CV.長縄まりあ)、柳場ぱんだ(CV.大空直美)、流石知冴(CV.佐々木李子)

BPM BASIC ADVANCED EXPERT MASTER Re:MASTER
158 4 7+ 10+ 12 14

EXPERT MASTER Re:MASTER
譜面制作者 まぐランド はっぴー Luxizhel

BASIC

(158)
{2},,8h[1:1],,,,8,8,8,,1h[1:1],,,,1,1,1,,1h[1:1]/8h[1:1],,,,{1}B8,B1,B7,B2,B6,B3,Ch[1:1],,

{2}8,8,7,,6,6,6/5,,4,4,3,,2,2,2/1,,1h[2:1]/2h[2:1],,1/2,,3h[2:1]/4h[2:1],,3/4,,5h[2:1]/6h[2:1],,5/6,,7h[2:1]/8h[2:1],,7/8,,1h[2:1]/8h[2:1],,1x/8x,,8,8,7,7,6,6,5/4,,3,3,2,2,
(200)
{1}1x/8x,8x-5[4:3],,4x-1[4:3],,

{2}1b,1,2,2,3,3,3/4,,5,5,6,6,7,7,7/8,,8,8,7,7,6,6,5/4,5/4,4,4,3,3,2,2,8x/1x,,{4}1,1,1,,2,,2,,3,3,3,,3x/4x,,,,5,5,5,,6,,6,,7,7,7,,7x/8x,,,,8,8,8,,8/7,,8/7,,6,6,6,,5x/4x,,5x/4x,,4,4,4,,4/3,,4/3,,2,2,2,,1x/8x,,1x/8x,,2bx/7bx
E

ADVANCED

(158)
{1},2-5[2:1],6-3[2:1],2-6[2:1],7-4[2:1],3-8[2:1],7-3[2:1],1-5[2:1],7pp4[4:7],,,{4}3,3,3/4,,2,2,2/1,,8,8,8/7,,6/5,6/5,6/5,,6,6,6/5,,7,7,7/8,,1,1,1/2,,3/4,3/4,3/4,,

{2}3h[2:1],4h[2:1],5h[2:1],6,6h[2:1],5h[2:1],4h[2:1],3,2h[2:1],1h[2:1],8h[2:1],7,7h[2:1],8h[2:1],1h[2:1],2,{4}2,2,2,,3,3,3,,4,4,4,,5/6,,5/6,,7,7,7,,6,6,6,,5,5,5,,4/3,,4/3,,4/3q5[4:5],,,,,,,,B7,B6,B5,,B2,B3,B4,,B8,B7,B6,B5,B4,B3,C,,B1,B2,B3/B4,,B8,B7,B6/B5,,
(200)
{4},,,,3,3,3/4,,2,2,2/1,,8,8,8/7,,6/5,6/5,6/5,,

{4}
6b,6,7,7,8,8,1/2,,3,3,2,2,1,1,8/7,,7,7,6,6,5,5,4/3,,2,2,3,3,4,4,5/6,,6,6,7/8,7/8,1,1,1/2,,3,3,2/1,2/1,8,8,8/7,,7,7,6/5,6/5,4,4,4/3,,2,2,3/4,3/4,5,5,5/6,,6,6,6,6/5,7,7,7,7/8,1,1,1,1/2,3,3,3/4,,3,3,3,3/4,2,2,2,2/1,8,8,8,8/7,6,6,6/5,,B7,B6,B5,B4,B3,B2,C,,E2,E3,E4,E5,E6,E7,E8,,2,2,2/1,,7,7,7/8,,1/8,1/8,2/7,2/7,3/6,3/6,4/5,5^8[1:1]/4^1[1:1]
E

EXPERT


MASTER

(158)
{2},{4}3h[4:9],{1}4>5[4:5],,4pp5[2:1],{2}5xv8^6[8:3],4xv1^3[8:3],{4}5x,
6,{8}7,{4}7h[4:1],5h[4:1],4h[4:1],2h[4:1],4,{8}4,{4}5-8[2:1],1,2,3,47,{2}5qq4[2:1]/6q4[2:1],,,
A3/B3/E3/A6/B6/E7,{4}45,8bh[4:1],{8}1,1,{4}26,

3-1[8:1]/5-8[8:1],3x/5x,{8}1x/7x,{4}1x/7x,6h[4:1],8h[4:1],1h[4:1],{8}3,{4}3,
6-8[8:1]/4-1[8:1],6x/4x,{8}8x/2x,{4}8x/2x,1^4[8:1],7^4[8:1],2h[4:1],{8}5,{4}5,
3-1[8:1]/4^6[8:1],3x/4x,{8}25,{4}2h[4:1]/5h[4:1],,B3/B4/E4,25,{8}6,7-2[8:1],,
4,3-6[8:1],,6,7-2[8:1],,4,3-6[8:1],,6,{4}7h[4:1],4,36,

25,3qq2[4:1]/6pp7[4:1],,,4x-1[4:1]/5x-8[4:1],,,18,7h[2:1],5,2h[2:1],4,{8}6,6,47,,
3,3,25,,7,7,,B3/B4/B5,,26,26,,8h[4:1],,1,1^4[8:1]*^6[8:1],{4},,57,18,24,46,2h[4:1]/8,4b,37,B5,
1h[4:1]/6h[4:1],,2,{1}4<8[2:1]/5>1[2:1],{4}1h[1:1]/8,{1}7^2[8:3],{4}2x/8x,E3/E8,7x/1x,E7/E2,
{8}8,{4}8q6[4:1],2h[4:1],,{8}8,1,{4}1p3[4:1],7h[4:1],,{8}5,
{4}5,34,57,24,3h[8:1]/8h[8:1],6h[8:1]/1h[8:1],3h[8:1]/8h[8:1],6>8[2:1]/1,Cf,,,{8},2h[4:3]/7,,8x,8x,8x,,E1,,,

{4}3^1[8:1]/5^7[8:1],3x/5x,6^8[8:1]/4^2[8:1],6x/4x,26,E3/E6,73,E7/E4,
{8}5,4,{4}37,B6,28,{8}17,26,{4}3/5>8[4:1],,,{8}8,8,5,5,6,6,3pp8[8:5],,{1}5h[400:479],

(200)
{4}6x,6x,4,3b/5b,2-4[8:1]/6,5,7-5[8:1]/3,4,2-4[8:1]/6,5,73,8<4[4:1],
4>8[4:1],8<4[4:1],4>8[4:1],8b,4b,5b,5b/6b,{2}7b^4[8:1]/8b^3[8:1],

7^4[8:1]/8^3[8:1],7v5[8:1]/8v2[8:1],{4}1x/4x,25,3/6pp3[8:5],{1}2h[1:1],{4}1,46,8,35,
2h[8:1]/6h[8:1],2h[8:1]/5h[8:1],7h[8:1]/3h[8:1],7h[8:1]/4h[8:1],
2h[8:1]/6h[8:1],2h[8:1]/5h[8:1],7h[8:1]/4h[8:1],2/4q8^3q7[4:3],{1}1b,{2}3/4-8[8:1],6/5-1[8:1],
{4}3,2qq5[4:3],E6,E7,,8h[4:1],6,4,2,1-5[8:1],7-3[8:1],2-6[8:1],8-4[8:1],1-5[8:1],6,6,
4/5h[4:1],3h[4:1],1h[4:1],8h[4:1],6h[4:1],4,35,18,{8}36,36,,8,8x<4p1[4:3],,{1}3hx[4:13],{4}8bx,

{2}1<5[8:1]b,1V75[8:1]b,1-5[8:1]b,1-5[8:1]b,{8}1,,12,,3,3,5,5,1,1,7,7,4,,{2}2^4[8:1]/5x^8[8:1],
7^5[8:1]/4x^1[8:1],2^4[8:1]/5x^8[8:1],7^5[8:1]/4x^1[8:1],{4}2,
B3/E3/E4/B6/E6/E7,2x/7x,1x^4[8:1]/8x^5[8:1],,2hx[4:1]/7x,{8}4,4,,1b/7b,{4}1b/7b,
46,7,5/8h[4:1],4,3,2,17,{1}1pp2[8:3]/8qq7[8:3],{8}2x/8x,2x/8x,,1x/7x,,3h[8:19]/5-1[8:1],{4},,
8bx,2bx,7bx,4bx,8bx,4bx,5bx,8bx<4[8:1],{8}2pp5[2:1],,,6x,,,7,7h[4:1],,5,5,8,8,4,{1}4^1[8:9]*^7[8:9],,,,E

Re:MASTER

(158)
{2},{24}4,5,4,5,4,5,4,5>6[24:23],4,5,4,5,{1}4b,{2}2-5[4:1],6-1[4:1],{1}2q5[4:3],6<3[2:1],
4q1[2:1],8q5[2:1],4q5[4:3],6<3[2:1],{4}4h[4:3],5,5,5-8[4:1],,,{16}1,8,1,,{4}27,

4-8[8:1]/5-1[8:1],4bx/5bx,{8}7x/8x,6,12,3,78,6,12,{16}3,4,3,4,2,5,2,5,{8}3,
4/2-5[8:1],,1b/2b,,7,8-6[8:1]/1-6[8:1],2,{4}8-3[8:1]/1-3[8:1],8-6[8:1]/1-6[8:1],18,{8}18,{4}27,
1-5[8:1]/8-4[8:1],1bx/8bx,{8}5x/6x,7,34,2,56,7,34,{16}2,1,2,1,3,8,3,8,{8}3,
12,{24}1hx[8:1]/2x,3x,4x,{8}5x,87,{24}8hx[8:1]/7x,6x,5x,{8}4x,12,{24}1hx[8:1]/2x,3x,4x,
{8}5x,78,16,25,{16}3,4,2,,8,1,7,,

{8}2bV41-5[2:1]/6bh[4:1],,,7,7,,8,,57,6,3/5-2[8:1]*-8[8:1],4,,,{4}37,
2-5[4:1],5-1[4:1],1-6[4:1],6-3-8[2:1],7hx[2:1],,,26,
{8}34,34,25,1^3[8:1]/6,,{16}6,7,{8}8,,65,65,74,8^6[8:1]/3,,{16}3,2,{8}1,,
34,34,25,25,16,16,78,78,{4}1w5[8:1]/6,1x,3-8[8:1]/7-4[8:1],3b/7b,

{8},1,1>5[4:1],5,{16}5x,,,7x,,,{8}8x,8-4[8:1],5<3[16:5],8,5,{2},
{8}57,6,24,3,{16}7h[16:3],,,6h[16:3],,,5,,{4}5<1<5[2:1],1,4,2,
{8}12,12,38,4^2[8:1]/7,,{16}7,6,{8}5,,87,87,61,5^7[8:1]/2,,{16}2,3,{4}4,
8^5[4:1],5p1[4:1],1^4[4:1],4q8[4:1],8^5[4:1],5q1[4:1],1^4[4:1],
{1}4qq1[8:5]*pp7[8:5],{8},28,,46,37,{4}2-5[8:1]/8-5[8:1],2x/8x,{8},

2,2-5[8:1],{16}3,4,2,,7,,7-4[8:1],,6,5,7,,3,,3-8[8:1],,2,1,3,,6,,6-1[8:1],,7,8,6,,
2,,2,,6,5,6,,45,,3,24,,6,57,,{4}1-5[8:1]/2-6[8:1],12,{16}4h[8:1]/8h[8:1],,,2b/6b,{8},,
1-5[8:1],6-8[8:1],1,6,4,{16}2,1,,3,4,,{4}1-5[8:1],1/6p4[8:3],2,,

(200)
1x,1x,{16}5,4,5,4,{8}36,,6,5,47,6,5,6,47,6,3,4,52,3,4,3,25,,
46,46,35,35,{16}2,4,2,4,{4}2,18,27,{16}36,,4,7,{8}1,,

2b/6b,{16}3,4,{8}2-5[8:1],1,7-4[8:1],8,2,3,{16}3,4,2,,18,,6,5,7,,18,,{4}2-6[8:1]b,
2b/1b-5[8:1],1b/8b-4[8:1]b,8b/7b-3[8:1],7b/8b,2^5[8:1]/5,{24}26,7,8,{4}1^6[8:1],{24}15,4,3,{8}2,,
15,{16}2,4,{8}3-8[8:1],2,7-4[8:1],6,1,2,{16}3,4,2,,18,,6,5,7,,18,,{4}2-6[8:1]b,
2b/4b-8[8:1],4b/5b-1[8:1]b,5b/7b-3[8:1],7b/8b,2^7[8:1]b,{16}26,5,4,3,2,1,8,7,{4}6/C,

18,{8}2-6[8:1],6,2-4[8:1],4-8[8:1],2,7qq4[8:3],,3,{4}3,1^4[8:1]*^6[8:1],1w5[8:1],
1,3x/7x,12,{8}48,{4}4^1[8:1]/8^5[8:1],4-7[8:1]/8-3[8:1],4-8[8:1]/8-4[8:1],48,{8},
7,7-4[8:1],8,71,3,3-8[8:1],4,35,6,6-1[8:1],5,46,2,2,1,38,
{16}47,,6,5,6,,25,,3,4,{8}3,47,47,,25,25,3,46,37,2b/8b,,

{16}4x,6,4,6,4x,6,4,6,3x,6,3,6,3x,6,3,6,3x,5,3,5,3x,5,3,5,2x,5,2,5,2x,5,2,5,
3x,4,3,4,2x,5,2,5,1x,6,1,6,8x,7,8,7,1x/6x,,3,4,3,,47,,6,5,6,,{4}37,
{16}2x,1,2,1,2x,1,2,1,3x,8,3,8,3x,8,3,8,4x,7,4,7,3x,6,3,6,2x,5,2,5,1x,6,1,6,
8b,7,1,6,8b,7,1,6,8b,7,1,6,8b,7,1,6,2x/5x,,3,4,3,,45,,6,5,7,,{4}48,

3-8[8:1],5h[4:1],{8}7-2[8:1],7,5^8[8:1],5,,2,{4}2,45,7/8>4[4:1]b,
4<8[4:1]b,8>4[4:1]b,4,{8}6,6,,24,,57,,18,{4}2-5[8:1]/7,
2/6-1[8:1],6/3-8[8:1],3/7-4[8:1],7/1-5[8:1],{8}1/8-4[8:1],8,8/2-5[8:1],2,2/6-1[8:1],6,62,2,
28,{16}6,5,6,,71,,3,4,3,,28,,6,5,6,,4,5,3,6,2,7,1-5[8:1],5,3,7,{4}1b>8[1:1],{1}B6/B7/E7f,,,,E

  • 追加しました。修正等ありましたらよろしくお願いします。 -- けもがみ (2024-11-14 05:08:59)
  • ノーツの開始位置を調整しました。 -- けもがみ (2026-02-19 06:18:40)
  • MASTER譜面を追加しました。修正等ありましたらよろしくお願いします。 -- けもがみ (2026-02-20 19:37:17)
名前:
コメント:

タグ:

+ タグ編集
  • タグ:
最終更新:2026年08月12日 22:35