アットウィキロゴ

Cryptarithm

アーティスト 削除

BPM BASIC ADVANCED EXPERT MASTER Re:MASTER
175 6 8 13 14+ -

EXPERT MASTER Re:MASTER
譜面制作者 みそかつ侍 Safazhel -

BASIC


ADVANCED


EXPERT

(175){4}3-1-6[4:3]/7-5-2[4:3],,,,{16},,,,,,,,2h[16:3]/7h[16:3],,,,2x/7x,,3x/6x,,{1}4b>5s1[4:13]/5b<4z8[4:13],,,,{8}6h[8:3],,,5h[8:3],,,4,,3h[4:3],,,5,5,,7<1[4:3],,{1},{8}2h[8:2]/7h[16:7],,,,,1/8,1/8,,{1}Ch[2:7]/E7/E3,,,,{4}7,5/6,4/5,3/4,2,3/4,4/5,5/6,5/7,4/5,4/2,5/4,5/7,4>1[4:1]/5<8[4:1],,,{16}1/8,,7,5,,,5/4,,2,4,,,1/8,,,,8/1,,2,4,,,4/5,,7,5,,,8/1,,,,3/4,,2,1,,,6/5,,7,8,,,3/4,,,,6/5,,7,8,,,3/4,,3h[4:1]/4h[4:1],,,,,,,,8/1,,2,4,,,4/5,,7,5,,,8/1,,1/8,,1/8,,7,5,,,5/4,,2,4,,,3/5,,3/5,,5/6,,7,8,,,4/3,,2,1,,,5/6,,5/6,,4/6,,,3/5,,,1/8,,{4}1b-5[8:1]/8b-4[8:1],,

{4}2<5[4:1]/6h[4:2],,{8},,3,2/4,,8,7,6,3,2,1/8,,3<8[4:1]/7h[4:2],,,,,,2,1/3,,5,6,7,3,4,5/6,,7>4[4:1]/3h[4:2],,{8},,,,6,7/5,,1,2,3,6,7,8/1,,6>1[4:1]/2h[4:2],,,,,,7,8/6,,4,3qq4[8:3],3,6,6,,,{16}7,,7,5,,5,4,,4,2,,,3/4,,,,2,,2,4,,4,5,,5,7,,,6/5,,,,3,,3,1,,1,8,,8,6,,,3/5,,,,6,,6,8,,8,1,,1,3,,,6/4,,,,2,,2,4,,4,5,,5,7,,7,1,,4/6,,7,,7,5,,5,4,,4,2,,2,8,,5/3,,6,,6,8,,8,1,,1,3,,3,5bqq2[8:5]*pp8[8:5],,,,{4},,,,4h[4:1]/7h[16:7],,{8},5/6,5/6,,{1}1bx/8bx<3[4:5],,{4}3h[2:3],,E3,,E4,,4h[1:4],,3p5[2:1],,,,6-4-1[2:1],,,,8<5pp2[4:5],,,,,,,,{8}3h[8:3],,,4,4,,5,,6-4[8:1],,,,2-8[8:1],,,,6h[8:3],,,5,5,,4,,3-1[8:1],,,,7-5[8:1],,,,3h[8:3],,,4,4,,5,,5h[4:1]/6h[4:1],,,4,4,,3/4,,2h[2:1]/5v4[4:1],,,,,,4-2[8:1]*-6[8:1],,,,8x,,2bh[4:1]/6bh[4:1],,,,

7<4[8:1]/1,,,3,3h[4:1],,5,,6-4[8:1],,,,2,,3/5,,2-4[8:1],,,7,7,,5qq3[4:1]/6pp8[4:1],,,,,,6,,4,,6<1[8:1]/3,,,4,4,,7,,8-2-6[4:2]/2h[4:3],,,,,,,,3qq8[4:3]/7qq4[4:3],,,,,,,,,,,,4/8,,3,,2-4[8:1],,,6,6,,7-5-3[4:1],,,,,2,2,,1/2,,3-6-4[2:1]/8,,,,,,,,3qq4[2:1]/7qq8[2:1],,,,,,,,2h[4:1]/6h[4:1],,,7,8,1,2,,5h[4:1]/3h[4:1],,,3,4,5,6,,5xw1[2:1]/6x,,,,,,,,{4}3h[16:7]/7h[4:1],,{8},7,8-4[8:1],,

{8}2-6[8:1],,7-4[8:1],,1,,2/5,2/5,{16}3x,4,3,,6x,5,6,,7,,8,,{8}1-5[8:1],,7-3[8:1],,2-5[8:1],,8,,6/4,6/4,7h[4:1],5,3h[4:1],4,5h[4:1],2,1-5[8:1],,7-3[8:1],,2-5[8:1],,8,,7/4,7/4,{16}6x,5,6,,3x,4,3,,2,,1,,{8}8-4[8:1],,
{8}2-6[8:1],,7-4[8:1],,1,,3/5,3/5,{16}E4,E5,E6,E7,E8,E1,E2,E3,E4,,,5x/6x,,,8x/1x,,{8}8bx-4[8:1]/1bx-5[8:1],,,,2/7,,5/6,5/6,{16}7x,8,7,,2x,1,2,,3/4,,5,,{8}6-3[8:1],,2-6[8:1],,8-4[8:1],,1,,3/5,3/5,2h[4:1],4,6h[4:1],5,4,3/7,3/7,,2x-4[8:1],2,8x-6[8:1],8,1x-5[8:1],1,5x,,7x-5[8:1],7,1x-3[8:1],1,8x-4[8:1],8,2x,,{16}1b,2,3,4,5,6,7,8,1,2,3,4,5,6,7,8,1,,,3x/4x,,,5x/7x,,1b/8b,,1b/8b,,1b/8b,,,,

{16}7,,7,5,,5,4,,4,2,,2,8,,1/7,,2,,2,4,,4,5,,5,7,,7,1h[8:1],,5,,6,,6,8,,8,1,,1,3,,3,5,,4/6,,3,,3,1,,1,8,,2b-5[8:1]/6bh[4:1],,,,,,,,7,,7,5,,5,3,,3,1,,1,7,,3/5,,2,,2,4,,4,6,,6,8,,8,2,,6/4,,3,,3,1,,1,7,,7,5,,5,3,,2/6,,2/6,,,4/7,,,1/5,,{2}1bxh[4:1]/5bxh[4:1],{16}3/4,,,4-8-3[8:3]b/5,,,6,,,5,,,7,,7,,7/5,,,6-1-5[8:3]b/4,,,5,,,4,,,3,,3,,3/4,,,1/2-5-1[8:3]b,,,8,,,6,,,7,,7,,1/7,,,2/8-4-7[8:3]b,,,1,,1h[4:1],,,,,,,,2,,2,4,,4,5,,5-3-8[4:1]b,7,,8x,8x,,,,7,,7,5,,5,4,,4-6-1[4:1]b,2,,1x,1x,,,,3,,3,1,,1,8,,8-3-5[4:1]b,6,,5x,5x,,,,7-3[12:1],,,4bw8[12:1]b,E

MASTER

(175)
{32}8b-3-6[8:5]/4b-7-2[8:5],73,62,51,,,,,{4},,,A4/B4/Cf/B8/A8,,
{16}27,,1,8,{8}1,27,{1}4-1<5[4:13]/5-8>4[4:13],,,,
{4}5,5h[1:1],E5,,4,3h[1:1],E5,,5,6h[4:3],E5,,
4bh[4:1],{16}5h[8:1],4h[8:1],,,5h[8:1],4h[8:1],,,{4}5^8[8:1]b,
{1}1h[1:7]/5-3v2V86-4[4:13],,,,{4}4,4,3,3,2,2,8,8,7,7,6,6,5-2[8:1],1-7v4[16:5],,,

{16}3h[8:1]/5h[8:1],,,3h[8:1]/5h[8:1],,,4h[8:1]/6h[8:1],,,5h[8:1]/7h[8:1],,,6,,6,,
5h[8:1]/7h[8:1],,,4h[8:1]/6h[8:1],,,3h[8:1]/5h[8:1],,,2h[8:1]/4h[8:1],,,1,,1,,
2h[8:1]/4h[8:1],,,3h[8:1]/5h[8:1],,,4h[8:1]/6h[8:1],,,5h[8:1]/7h[8:1],,,6,,6,,
5h[8:1]/7h[8:1],,,4h[8:1]/6h[8:1],,,35,,3-7[8:1]b/5,,,6,,,8,,
8h[8:1]/6h[8:1],,,7h[8:1]/5h[16:1],,,6h[8:1]/4h[8:1],,,5h[8:1]/3h[16:1],,,2,,2,,
1h[8:1]/3h[8:1],,,2h[16:1]/4h[8:1],,,3h[8:1]/5h[8:1],,,4h[8:1]/6h[16:1],,,7,,7,,
8h[8:1]/6h[8:1],,,1,7,,1h[8:1]/3h[8:1],,,8,2,,46,,35,,4,5,,3pp8[16:5]/6qq1[16:5],,,36,,{2},

{4}2b-4[8:1]/8b-4[8:1],8/2-6[8:1],27,{16}8,,8,,3,7,3,7,2,6,2,6,1-5[8:1],,5,,{4}1,
4/6^1[8:1],6/2^5[8:1],2/5p8[16:3],{16}7,,7,,7,6,5,4,1,2,3,4,8,,8,,{4}2b/6b,
7-5[8:1]/1-5[8:1],1/7-3[8:1],72,{16}1,,1,,6,2,6,2,7,3,7,3,8-4[8:1],,4,,{4}8,
5/3^8[8:1],3/7^4[8:1],7/4q1[16:3],{16}2,,2,,2,3,4,5,8,7,6,5,{2}4-7[8:1]b/8-3[8:1]b,

{16}3hx[8:1],,5,4h[8:1],,6,5h[8:1],,7,6h[8:1],,8,6,,6,,
7h[8:1],,5,6h[8:1],,4,5h[8:1],,3,4h[8:1],,2,4,,15,,
2h[8:1],,1,3h[8:1],,8,4h[8:1],,7,5h[8:1],,6,5,,6,,
7h[8:1],,8,6h[8:1],,1,5h[8:1],,2,4h[8:1],,3,4,,35,,
6hx[8:1],,5,6,4,5,3h[8:1],,4,3,5,4,6,,56,,7h[8:1],,8,7,1,8,2h[8:1],,1,2,8,1,7h[8:1],,8,,
1h[8:1]/6,,5,2,4,3,6h[8:1],,4,8,4,8,{8}1qq6[4:3]/5qq2[4:3],15,{1}15,

{4}3b/7b,{16}45,,6,6,4,5,{8}3,2-4[8:1]b/6,71,
{2}2b/6bV42V86[1:1],2,6V42V86[1:1],{4}2,4,{2}6V42V86[1:1],2,4h[2:1],{4}5h[2:1],4,
{2}3>3[1:1],7,3>3[1:1],{4}7,5,{2}3>3[1:1],7,7h[2:1],{4}5h[4:1],4h[4:1],
2V46[2:1],{8}8,7,{4}6V82[2:1],4,2V46[2:1],,6V82[2:1],{8}4,3,
{4}2V46[2:1],,6V82[2:1],{8}4,3,2,,{16}E5,E6,E7,E8,E1,E2,E3,E4,{4}E5/C,
7V53[2:1]/3,{8}1,2,3V17[2:1],,8,,7V53[2:1],,,3,3V17[2:1],,5,,
{2}7V53[2:1],{8}3,,2-8[8:1]b,,8-4[8:1]b,7,6z2[4:1],,{2},

{8}2h[1:1]/8h[4:1],,,6h[4:1],,,4-6[8:1],,4>8[4:1],,7,6,{4}5h[2:1],B6/B7,
3h[8:3],{8}4,4h[8:3],,5,5V31-7[2:1],5,{2},{8}6,5,4,,
3x/5hx[8:3],,4,4V26[2:1],4,,6,{2}6-1[4:1],{8}8,8,7,6,,
4hx[4:1]/5,,3V17-5[8:3],{4}3,4,2q6[4:1],{8}7,7,,{2}8-4[8:1],
{8}1/5h[2:1],,1,2,3h[1:1],,4,4,,2,2,,5h[2:1],,{32}E5,E6,E7,E8,E1,E2,E3,E4,
{8}4hx[8:5],,6,6h[4:1],,,35,2h[2:1]/4,,C,,,{16}A8,A7,A6,A5,A1,A2,A3,A4,
{8}6h[1:1],,5,E6,,5,4,3,2h[4:1],,4,{16}B5,B6,{8}E7,4,3,2,
1h[4:3]/8,,2,2,3,4,5-1[4:1],6,{4}7h[4:3],,,{32}2,3,4,5,6,7,8,1,

{4}2bv5[8:1]/8bv5[8:1],2/8-3-7[4:1],48,{8}2,2,{16}7,4,6,5,8,3,6v1[8:1],5,{8}7-4[8:1],6,7,,
{4}2^5[8:1]/5^8[8:1],2/5qq1[4:1],1x/5x,{8}8,6,{16}14,5,6,7,84,1,2,3,{8}4^7[8:1]/8^3[8:1],15,48,,
{4}7bxv4[8:1]/1bxv4[8:1],7/1-6-2[4:1],18,{8}7,7,{16}2,5,3,4,1,6,3v8[8:1],4,{8}2-5[8:1],3,2,,
{4}7^4[8:1]/4^1[8:1],7/4pp8[4:1],8x/4x,2h[8:1],{16}1,1,3,3,5,5,7,7,1,1b,,28,,6,5,6,

{4}4b^1[8:1]/7b^1[8:1],4/7^4-8[4:1],78,{8}3,3,{16}8,3,1,2,7,4,6-2[8:1],5,{8}8-4[8:1],6,8,,
{4}1^4[8:1]/5^8[8:1],1/5qq2[4:1],1x/5x,{8}8,6,{16}14,25,36,47,58,6,7,8,{8}1-4[8:1]/4-7[8:1],25,14,,
{16}3,3,7,7,5,5,1,1,3-8[8:1],3,7,7,{4}3,{16}6,6,4,4,2,2,6,6,8-4[8:1],8,2,2,{4}8,
{16}3,7,1,5,4,6,2,8,1,5,3,7,{32}1,8,7,6,5,4,3,2,
{16}1/8h[8:1],,,1h[8:1]/7h[8:1],,,{8}26,2v5[8:1]/6-1[8:1],37,2b/6b,,

37,{16}2,1,2,,6-8[8:1],4,8-3[8:1]*-4[8:1],1,{8}6,,,25,{16}3,4,{8}3,2-4[8:1]/5-1[8:1]b,{2}1^6[8:1]/6,
{16}45,,6,5,7,,3-1[8:1],5,1-6[8:1]*-5[8:1],8,{8}3,,,47,{16}6,5,{8}7-3[8:1],1-5[8:1]b,7^4[8:1],1b,7b,,
15,{16}7,8,7,,2-4[8:1],8,4-7[8:1]*-8[8:1],6,{8}2,,,16,{16}7,8,{8}6,1^4[8:1]/5-1[8:1]b,{2}1^6[8:1]/5,
{16}2b/5b,,3,4,3,,26,,7,3,7,3,8,2,8,2,{24}7,6,5,1,2,3,8^2-4^6[4:1]b,7,6,2,3,4,{4}8b,1b,

{16}3,4,3,5,4,5,2,4,3,6,4,5,{24}1,2,3,4/7b,,,{16}6,5,6,4,5,4,7,5,6,3,5,4,{24}7,6,5,4/3b,,,
{16}2,1,3,7,8,6,2,4,3,7,5,6,{24}2,3,4,5/6b,,,{16}7,8,6,2,1,3,7,5,6,2,4,3,{4}8bx,
{32}7h[8:1]/1b,2,3,,,,7h[8:1]/2b,3,4,,,,8h[8:1]/3b,4,5,,,,8h[8:1]/3b,4,5,,,,{8}48,13,
{32}2h[8:1]/8b,7,6,,,,2h[8:1]/7b,6,5,,,,1h[8:1]/6b,5,4,,,,1h[8:1]/6b,5,4,,,,{8}51,86,
{16}2bh[32:1],1,3,7bh[32:1],8,6,2bh[32:1],5,{24}3,4,3,4,3,4,{8}25,78,
{32}8bh[8:1]/7b,6,5,4,,,1bh[8:1]/2b,3,4,5,,,4b/8b,37,26,15,{1}84,,,,E

Re:MASTER


  • 追加しました。修正等ありましたらよろしくお願いします。 -- けもがみ (2024-11-14 22:23:17)
  • EXPERT譜面を追加しました。修正等ありましたらよろしくお願いします。 -- Sugar (2026-01-11 15:17:20)
名前:
コメント:

タグ:

+ タグ編集
  • タグ:
最終更新:2026年04月05日 17:58