アットウィキロゴ

Divide et impera!

アーティスト BlackY a.k.a. WAiKURO survive

BPM BASIC ADVANCED EXPERT MASTER Re:MASTER
166 6 8 12+ 14+ -

EXPERT MASTER Re:MASTER
譜面制作者 ロシェ@ペンギン The Dove -

BASIC


ADVANCED


EXPERT

(166){8}1/5,1h[8:5]/5h[8:5],,,,,,,3/7,3h[8:5]/7h[8:5],,,,,,,5qq1[4:3]/6,,,,,,,,8x-4[8:1],,,,1x-5[8:1],,,,{16}6hx[16:3],,,5,,,4/7,,3hx[16:3],,,4,,,5/2,,7hx[16:3],,,5,,,4/8,,2hx[16:3],,,4,,,5/1,,7hx[16:3],,,5,,,4/8,,{4}4h[1:1]/8<1[2:1],,,,Cf,,{2}8h[1:1]/3h[1:1],,,4-1[8:1]/5-8[8:1],
{8}2bx<7[8:1]/7bx,,6-3[8:1],,8-4[8:1],,5,5,5-8[8:1],,1-4[8:1],,6,6,5/7,,7-2[8:1]/2,,3-6[8:1],,1-5[8:1],,4,4,{16}6x,,,3x/4x,,,5x/7x,,,4x/2x,,,1bx/8bx,,,,{8}5/6,,1bx/3bx-6[8:1],,5-1[8:1],,8,8,8-5[8:1],,6-3[8:1],,1,1,2/8,,{2}6h[4:1]/8h[4:1],3h[4:1]/5h[4:1],{16}1b/2b,,,4b/5b,,,{8}7b/8b>3[8:1],,,,,4/5,,
{8}1bx/7bx,,{16}2h[16:3],,,3h[16:3],,,4,,7h[16:3],,,6h[16:3],,,5,,4/5,,,,1/8,,,,1/3h[16:3],,,5,,,6,,8/6h[16:3],,,4,,,3,,1-5[8:1]/3h[4:1],,,,,,,,4,6,4,6,4,,,,4/5,,,,2bx/8bx,,,,7h[16:3],,,5h[16:3],,,4,,4h[16:3],,,2h[16:3],,,1,,1,,,,1/8,,,,5x/7x,,,5/7,,,2/4,,,2/4,,,1x/7x,,1x>8[8:3]/7hx[1:1],,,,,,,,,,,,,,,,
1,8,1,8,1,8,1,8,1,8,2,7,2,7,2,7,2,7,{4}3-6[8:1],2-7[8:1],8-3[8:1]*-5[8:1],,
{4}A4/B4/E4/B3/A3/E3,,,{16},,1/3,,,2/5,,,4/7,,4/7,,{8},,,A5/B5/E6/B6/A6/E7,,,,{16},7/8,,7/8,{8},,,{1}1hbx[4:3]/Cf/B5/B4,{8}2x/8x,,3/6h[16:5],{16},4,,4,,,5/7,,,6/8h[16:5],,,1,,1,,,1/2h[16:3],,,4,,,2x/8x,,,2x/8x,,,,4/6,,,2/5,,,4/7,,,1/8,,,,1b/2b,,8x,,7x,,6x,,5x/6x,5x/6x,,,,7b/8b,,,1x/6x,,,2x/5x,,2x>7[8:3]/5x,,,,,,,,,,{1}1bx,{4}E3,E5,E7,8-4[8:1],,

{16}3bx,5,3,5,3,5,3,5,3,5,3,5,4,6,4,6,4,6,4,6,E3,,E1,,E7,,,,2,4,2,4,2,,7,5,7,5,7,,2,4,2,4,2h[4:1],,1,,7h[4:1],,8,,2-5[8:1],,,,,,,,6,4,6,4,6,4,6,4,7,5,7,5,7,5,7,5,8h[4:1],,6,,5,,4,,3h[4:1],,4,,4,,,,5h[16:3]/6,,,7,,,4h[16:3]/3,,,2,,,1/8,,,,{4}E7f/B6/B7,Cf,B2/B3/E3f,,5>2[4:1]/6<1[4:1],,,

{16}2bx,1,2,1,2,1,2,1,2,1,2,1,2,1,2,1,2,1,2,1,3h[2:1],,,,5,,6,,7h[2:1],,,,8,,1,,{2}2>5[8:1],2<7[8:1],{16}5x/6x,,,,7,8,7,8,7,8,7,8,7,8,7,8,6,1,6,1,6,1,6,1,5,2,5,2,5,2,5,2,4hx[16:3],,,2hx[16:3],,,8hx[16:3],,,6hx[16:3],,,4hx[4:1],,,,{1}8bxw4[2:1]b,{16}4/5,,,,3b/8b,,,6b/1b,,,3b/8b,,,6b/1b,,,3b/8b,,,6b/1b,,,3b/8b,,,1b/8b,,,1b/8b,,,,4/5,,,,1b/3b,,,3b/5b,,,5b/7b,,,1b/7b,,,1b/3b,,,3b/5b,,,5b/7b,,,1b/8b,,,1b-5[8:1]/8b-4[8:1],,,,,,,,8b/6b,,,6b/4b,,,2b/4b,,,2b/8b,,,8b/6b,,,6b/4b,,,2b/4b,,1/8,,,2/3,,,6/7,,4bx/5bx,,4bxqq1[2:1]/5bxpp8[2:1],,{4},,,2h[4:1],4,8-3[8:1]b/7-4[8:1]b,,

{8}2-7[8:1],,6-3[8:1],,8,8,4,4,1/5,1h[2:1]/5,,6,7,8,1x/8x,,7-2[8:1],,3-6[8:1],,1,1,5,5,8/4,8/4<3[8:3],,1hbx[8:3],,,,,{16}7,,7h[16:3],,,5,,,4-1[8:1]/8-5[8:1],,,,,,,,2,,2h[16:3],,,4,,,5-8[8:1]/1-4[8:1],,,,,,,,{8}7,6,5,3/4,,7/8>6[8:3],,Cf,
,,1,1,8,8,2/7,,2-7[8:1],,6bx-3[8:1],,8,8,4,4,{16}1/5,,2,4,2,4,3,,7,5,7,5,6,,,,{8}7-2[8:1],,3-6[8:1],,1,1,5,5,{16}8b/4b,,,2b/6b,,,1b>4[8:1]/8b<5[8:1],,,,,,,,,,7,,7h[16:3],,,5,,,4-1[8:1]/6-1[8:1],,,,,,,,2,,2h[16:3],,,4,,,5-8[8:1]/3-8[8:1],,,,,,,,{8}7,6,5,3/4,,7h[8:11]/8,,5,5,5,4,4,3,3,2,2,{16}1,8,1,8,1,8,1,8,2,8,1,8,1,8,1,8,{4}2b-6[8:1]b,7b-1[8:1]b,3b-5[8:1]b,8b<1[2:1]b,Cf/B5/B4,,,,

{8}3/7,3h[8:5]/7h[8:5],,,,,,,5qq1[4:3]/6,,,,,,,,8x-4[8:1],,,,1x-4[8:1]*-6[8:1],,,,{16}7hx[16:3]/5x,,,8,,,1/6,,2hx[16:3]/4x,,,1,,,3/8,,7hx[16:3]/5x,,,8,,,1/6,,2hx[16:3]/4x,,,1,,,3/8,,7x,5,7,5,7,5,7,5,7,,,,{4}1b>7[4:5]/8b<2[4:5],,,,,,,B6/B5/B4/B3/Cf,,,{16}2bx,1,2,1,3,8,3,8,4,7,4,7,5,6,5,6,3,4,3,4,2,5,2,5,1,6,1,6,,,7b/8b,,,2x/6x,,,3x,4x,,2x/5x,,2x/5x,,,7bx/5bx,,,2bx/4bx,,,1bx/8bx,,E

MASTER

(166)
{16}25,,25,,4,3,,2h[16:5]/5h[16:5],{2},{16}74,,74,,5,6,,7h[16:5]/4,{8},,5>6[2:1],4,
{4}3h[2:1],,,2-5[8:1]/5-1[8:1],25,7-4[8:1]/4-8[8:1],74,15,
{16}6/8h[16:3],,,1h[16:3],,,2,,3/1h[16:3],,,8h[16:3],,,7,,
6h[8:1]/7h[8:1],,,7h[8:1]/8h[8:1],,,81,,3h[8:1]/2h[8:1],,,2h[8:1]/1h[8:1],,,18,,
6,5,6,3,4,3,7,5,6,2,4,3,{24}45,,,,,4,5,4,5,4,5,4,5,4,5,4,5,4,5,4,5,{32}4x,3x,2x,1x,
{4}8xv5v2[2:1],6hx[4:7],,,{1}2-4v5-7[8:5]b,{4}8b,

{16}1v4[8:1],8,2,1,,3,,3,5v8[8:1],4,6,5,,7,,7,1-5[8:1],8,2,1,,3,,3,7,7,5,6,3,3,4,2,
8v5[8:1],1,7,8,,6,,6,4v1[8:1],5,3,4,,2,,2,1h[8:1]/3h[8:1],,,5h[8:1]/6h[8:1],,,
7h[8:1]/1h[8:1],,,2h[8:1]/4h[8:1],,,{8}45,36,{4}1/8w4[8:1],8b,
{16}3-7[8:1],4,2,3,,1,,1,6-2[8:1],5,7,6,,8,,8,1,7,3,3,{4}5-1[8:1],{2}5/2h[2:1],
{16}4,,15,15,,3,4,3,2b/5b,,56,4b/7b,,18,{4}2b/7b,{16}4,5,4,,17,,{4}2-5[8:1]/6-1[8:1]b,2b/6b,

{16}8h[16:3]/4,,,6,8h[8:1],,1,,8h[16:3]/1,,,7,8h[8:1],,5,,{2}8-4[8:1]/5^2[8:1],
{16}1h[16:3]/5,,,3,1h[8:1],,8,,1h[16:3]/8,,,2,1h[8:1],,5,,{8}26,26,2/6h[4:1],,
{16}1,8,7,6,51,4,3,2,{4}1-4[8:1]/5v8[8:1]b,1b/5b,
{16}7h[16:3]/3,,,1,6h[8:1],,8,,1h[16:3]/6,,,8,3h[8:1],,1,,{2}1/3-6[8:1],
{16}8b-3[16:1],,,1b-5[16:1],,,4b-8[16:1],,,2b-6[16:1],,,1b,,{4}7bh[4:1],
{16}5b-1[16:1],5b,,7b,,8b-4[16:1],,,3b-7[16:1],,,6b-1[16:1],,,
2b-5[16:1],2b,,7b-3[16:1],,,4b-1[16:1],4b,,5b,,6bh[16:3],,,2b,,
{16}1,5,1,5,1,5,1,5,{24}2,3,4,7,6,5,1-5[8:1],2,3,8,7,6,

{4}1b,,,{16},,1h[8:1]/E7,,,7h[8:1]/E3,,,2/E6,,{2}8/E4f,6/E2f,{16},
3/E8,,1h[16:5]/E6,{4},{32}5,62,73,84,{1}1bV74[2:1]/5bV38[2:1],
{16}15,,E2,E5,,15,,24,,24,,E3,E4,,15,15,,,34,,56,,48,48,,E8,E5,,48,48,,E7,E6,,57,,
7h[16:3],,,1h[16:3],,,3h[16:3],,,5,,,57,57,,46,,35,,46,,57,{4}57,
{16}48,4/8h[8:1],,6,{8}6h[8:1],4h[8:1],2h[8:1],8h[4:1],{48}1,2,3,4,5,6,{4}7b-3[8:1],
{32}7b/1bh[4:7],Cf,,,,,,,{4},,,2,2,3,4-8[8:1],,

{16}7/1b,2,3,4,8,1,2,3,7,8,1,2,34,5,6,7,81,2,3,4,{8}56,47,38,21,
{16}2,1,2,3,4,5,7,8,7,6,5,4,2,8,2,8,2,3,4,5,61,7,8,1,26,7,8,1,25,3,4,5,
63,2,1,8,4,3,2,1,5,4,3,2,18,7,6,5,43,,2h[8:1],,1,1,,28,,,{8}6h[8:1],5h[8:1],4h[8:1],
{16}3,3,,24,,,6,6,,5/7h[8:1],,8,1,2,3,4,6,6,5,5,{4}8-6[16:1],8b/5-1[8:1],5b/2q5[8:3]*<5[8:3],,,

3/7h[8:1],{16}A1/D1/E1,A7/D7/E7,A3/D3/E3,A5/D5/E5,E2,E8,E4,E6,A2/D3/E3,A8/D1/E1,A4/D5/E5,A6/D7/E7,
{8}1>5[8:1],1,8,,{16}A6,E6,E5,A8,E8,E7,A2,E2,E1,A4,E4,E3,7,1,7,1,7^4[8:1],,,8,,,1,,2^5[8:1],,,1,,,8,,
6h[8:1],,,5h[8:1]/7h[16:3],{4},{16}3h[8:1],,,4h[8:1]/2h[16:3],{4},
{16}5h[8:1]/6h[8:1],,,4h[8:1]/7h[16:3],{4},{16}3h[8:1]/4h[8:1],,,25,,,25,,
1,8,2,5,4,6,3,4,2,7,8,6,1,5,1,5,2,4,3,5,4,6,5,7,84,73,62,51,8,7,6,5,

{4}4/8-4[16:1],{16}8b/3-1[16:1],,,3b/5-7[16:1],,,5b/2-4[16:1],,,2b/8-6[16:1],,,
8b/1-5[16:1],,,1b/7-4[16:1],,,7b/2-5[16:1],,,2b/5,,,{4}4b/7b,
{32}3-8[16:1],5,4,5,4,,,,{16}3b/7-4[16:1],,,7b/1-5[16:1],,,1b/6-1[16:1],,,6b/4-8[16:1],,,
4b/7-4[16:1],,,7b/3-7[16:1],,,3b/5-8[16:1],,,5b/1,,,{4}3b/7b,
{24}6-1[16:1],5,4,3,,,{16}6b/4-8[16:1],,,4b/7-3[16:1],,,7b/1-5[16:1],,,1b/4-7[16:1],,,
4b/3-8[16:1],,,3b/5-8[16:1],,,5b/1,,1h[8:1],,,2h[8:1]/8h[8:1],,,{8}37,46,4h[8:7]/6,{4},,,
{24}3,2,1,8,7,6,3,2,1,8,7,6,3-7[8:1],2,1,8,7,6,{4}5b/3b,

{24}78,,,78,16,25,{8}3-6[8:1]/4,12,3/8-4[8:1],7,81,2,
1/5h[8:1],{24}8,1,2,3h[8:1],,,1,8,7,6h[8:1],,,{16}4,6,3,7,2,8,
21,,{24}21,83,74,{8}6V47[6:1]/5,78,6/1-5[8:1],2,18,7,
4/8h[8:1],{32}5<4[4:1],4,3,2,1,,,,{4}5b/E1f,{8},56,7,
71,{16}2,4,3,4,2>6[8:1],,71,,{24}D7,D8,D1,{8}D2,1x,
48,{16}7,5,6,5,7^4[8:1],,28,,{24}D3,D2,D1,{8}D8,8x,
{16}1,4,3,3,8,5,6,6,1,8,2,5,3,7,4,6,{8}3h[2:1]/7,7,7,7,
{32}6,5,4,3,2,1,8,7,63,4,5,6,7,8,1,2,{4}3v8[8:1]/7-4[8:1],3b/7b,

{24}15,,,4,3,4,{16}1,,28,,6,5,7,4,8,3,1,2,4,3,5,2,6,1,7,8,{8}1^4[8:1]/6^1[8:1],16,,,
{48}8b/5,7,6,5,,,,,,1b/4,2,3,4,,,,,,7b/4,6,5,4,,,,,,2b/5,3,4,5,,,,,,
8bV24[8:1]/5,7,6,5,,,,,,,,,{16}48,,,6h[8:1],,,57,,
57,,2,4,1-5[8:1],8,{8}2-4[8:1],1x-7[8:1],2x-6[8:1],A1f,A2f,
8,{16}7,5,8-4[8:1],1,{8}7-5[8:1],8x-2[8:1],7x-3[8:1],A8f,A7f,1,{16}2,4>5[16:5],,6,4,,{2},
{16}3,3,5,5,4,4,6,6,2,2,7,7,1,1,8,8,{32}2,3,4,,{16}7,7,1,1,{32}7,6,5,,{16}2,2,6,6,{32}4,3,2,1,{16}7,7,
{2}2h[8:3]/6h[8:3],{32}26,37,48,51,6,7,8,1,26,37,48,51,6p4>8[8:13],7,8,1,{1}2bp8<4[2:3]b/6b,,

{1}1h[4:3]/5pp4[2:1],{4}3-8[8:1]/7-3[8:1],37,1-5[8:1]/6-1[8:1],16,
{16}3h[8:1],,1,2h[8:1],,8,1,,6h[8:1],,8,7h[8:1],,1,8,,
4h[8:1],,1,2h[8:1],,8,1,,5h[8:1],,8,7h[8:1],,1,8,,
{16}2,4,3,7,5,6,1,4,3,8,5,6,{24}1h[24:5],,,,,
4,8,4,8,4,8,4,8,4,8,4,8,4,8,4,8,4,8,4,8,4,8,4,8,4,8,4,8,4,8,4,8,4,8,4,8,4,{16}1,1,5,5,3,3,7,7,{4}1h[4:1],
{16}8b,2h,8,2bh,7,5bh,1,3h,5b,1h,7b,3h,1b,5h,7,1bh,5,3bh,8,4h,6b,2h,4,8bh,5,1h,5b,1h,,,
78,61,,12,38,,45,36,,2h[8:1]/8h[8:1],,,,,
{48}1b/3b,84,75,6,,,,,,8b/6b,15,24,3,,,,,,1bw5[2:1],28,37,46,{1}5,,,,E

Re:MASTER


  • 追加しました。修正等ありましたらよろしくお願いします。 -- けもがみ (2024-11-18 16:13:50)
  • EXPERT譜面を追加しました。修正等ありましたらよろしくお願いします。 -- Sugar (2026-03-12 21:30:24)
名前:
コメント:

タグ:

+ タグ編集
  • タグ:
最終更新:2026年03月12日 21:30