アットウィキロゴ

氷滅の135小節

アーティスト 大国奏音

BPM BASIC ADVANCED EXPERT MASTER Re:MASTER
205 7 9+ 13 14+ -

EXPERT MASTER Re:MASTER
譜面制作者 サファ太 BELiZHEL vs 7.3GHz -

BASIC


ADVANCED


EXPERT

(205){4}3bh[1:1],,4,,4h[1:1],,5,,5h[2:3],,6,,6h[2:1],,,,7h[1:1],,6,,6h[1:1],,5,,5h[2:3],,4,,4h[2:1],,,,2h[2:7]/6>3[4:5],,,,,,,,3<6[4:5],,,,,,,,7h[2:6]/3<6[4:5],,,,,,,,Ch[4:4],,,,,,7x,,{8}6bh[8:2],,,6h[8:2],,,5/7,,4h[8:2],,,4h[8:2],,,5/3,,6h[8:2],,,6h[8:2],,,5/7,,6/4,,5/3v8[8:3],,,,,,7,7v4[8:3],,,,,,,3x,3xv6[8:3],,,,,,,8x,8x,,5/7,5/7,,4/5,4/5,,3x/4x,3bxh[4:5]/4bxs8[4:4],,,,,,,,,,,,,,

1x/2x,,5/6,,8/1h[4:1],,3,,5/7h[4:1],,8,8,,1/2,1/2,,3/4,,5/7,,8/2h[4:1],,4,,3/5h[4:1],,4,4-8[8:1],,,,,1/7,1/7,1h[4:1]/7,,3h[4:1],,5h[4:1],,7h[4:1],,5h[4:1],,3h[4:1],,1,,2>6[4:1],,,8x,8xh[4:2],,,,6,6,5/7,,6/4,,2,,5/3h[4:1],,4,4,3/5,,8,,4/6h[4:1],,5,5,6/4,,1,,2b/4b,2b/4b,2b/4b,,5b/6b,5b/6b,5b/6b,,4b>1[4:1]/5b,,,,7<4[4:1],,,,3h[4:1],,4,,5,5,4/6,,7/8,,1/2,,3/4,,5>1[4:2]/6,,7bx,,,,,,8z4[4:2],,1bx,,,,,,,,

4/5,,4/5,,6,6,7h[4:1]/5,,4,4,6,5,,4/7,4/7,,5/6,,4/5,,3,3,2h[4:1]/4,,5,5,3,4,,5/2,5/2pp5[4:3],,,,,,6,6,6pp1[4:3],,,,,,2,2,2,,8bh[8:5]/3b,,,,,1,,3h[8:3]/5,,,4,,4,,4-8[8:1]/5,,

7b<4[8:1],,1,,3,,3-5[8:1]/5,,8,,7>1[8:1],,5,,4/8,,1b/6b,,7/8,,6,6,4,5,1,1,3,3,5,5,4/6-1[8:1],,2b>5[8:1],,8,,6,,6-4[8:1]/4,,3,,2<8[8:1],,4,,5/1,,8b/3b,,1/6,,2,2,4,3,6,6,5,7,{16}1,8,1,8,{8}1b,,2b-5[8:1],,7,,6,,5/6v3[8:1],,3,,2<7[8:1],,4,,1/5,,3b/8b,,1/6,,2,2,4,3,8,8,6,6,4,4,3/5,,1b/2b-5[8:1],,8,,7,,5/6v3[8:1],,1,,2<7[8:1],,4,,1/5,,7b,7,5,5,4b,4,2,2,{16}1,8,1,8,1>5[4:1],8,1,8,{8},,,,5/7,5/7,5/7h[4:1],,8,8-3[8:1],,4,,2/5,2h[4:1]/5<1[4:1],,,,,,3/4,3/4,4/3h[4:1],,1,1-6[8:1],,5,,3/4,3/4-7[8:1],,2-5[8:1],,8,,6b/7b,,4b/5b,,2b/3b,,8b/1b,2b/7b,6b-1[8:1]/3b,,2b-5[8:1],,8b,,4b/6b,,{12}2bh[12:2],,4bh[12:2],,3b,,7bh[12:2],,5bh[12:2],,6b,,4x,5x,4x,5x,4x,5x,3x,4x,3x,4hx[4:1],,,{16}E4,E5,E6,E7,E8,E1,E2,E3,E4,E5,E6,E7,E8,E1,E2,E3,{4}E4f/Chf[4:4],,,,E3/B3/E4/E7/B6/E6,,,,,,,,

2-4-6-8[4:7],,,,,,,,1>8[4:7],,,,,,,,E1,,,,C,,,,E5,,,,Ch[2:1],,,,{8}1x/8x,,,,3/6h[8:3],,,5,,7,7pp2[8:5],,,,,,4,,4,,3h[8:3]/5,,,4,,2,2pp5[8:5],,,,,,7,,7,,4/7,,6,6,4,5,3,3,4hx[4:1],,1x,,2bx/5bx,2bx/5bx,,7bx/4bx,7bx/4bx,,1bx/8bx,1bx>8[4:5]/8bxh[8:3],{4},,,,,,,,{16}1,8,1,8,1,8,1,8,1,8,1,8,1,8,1,8,{4}2b/7b,,,,,,3h[2:1],,4h[2:1],,5h[2:1],,{8}6x,,4x/7x,4x/7x,,6x/5x,,3x/4x,3x/4x,,2/7,,{16}8,1,8,1,8,1,8,1,

{8}7b-4[8:1],,8-3[8:1],,6-1[8:1],,4,,3,3,7,7,1/6,2/5,3/4<7[8:1],,1b-5[8:1],,8x,,7/8,7/8,1/6-1[8:1],,2-5[8:1],,8-3[8:1],,4-8[8:1],,5,,1b/7b,,6,6,4,4,3/5,3/5,{16}2,4,2,4,2,4,2,4,{8}1b,1b,2b/8b,,6-2[8:1]/1,,2,,1/3,8/4,7/5-1[8:1],,6,,2/4-8[8:1],,3,,7/5>2[8:1],,6b,,7/8,,7,7h[8:1],5,5h[8:1],3,3h[8:1],2,2,3/8,4/7,5-1[8:1]/6,,7b<4[8:1],,2x,,1/2,1/2,3-8[8:1]/8,,4,,1/6<1[8:1],,4,,3x/8x,,7,7,5,5,4,4,2,2,{16}8,1,8,1,8<4[4:1],1,8,1,{8},,,,

1b/2b,3b/8b,4b/7b-3[8:1],,8x,8x-2[8:1],,6b,{16},,3,4,2,,6,5,7,,3,4,{8}2h[4:1],,1b,2b/8b,3b<6[8:1]/7b,,8,8,,8x/1x,{16}2,1,2,1,3b,,,,7,8,7,8,6b,,,,{8}3b/4b,5b/2b,6b-2[8:1]/1b,,5x,5x-3[8:1],,7b,{16},,7,8,6,,2,1,3,,7,8,{8}6h[4:1],,5b,6b/4b,7b<4[8:1]/3b,,1,1,,2x/5x,{16}3,4,3,4,3,4,3,4,3,2,1,8,7,6,5,4,{1}3x/8bh[1:4],,,,{2}1h[1:4],E1,E2,E3,E4,C,E8,C,3b-6[4:7],E

MASTER

(205)
{1},,{2}3-6[4:11],6,5,5,4,4,3,45,6-3[4:11],3,4,4,5,5,6,53,
2^5[4:5],5,6,7,8<4[4:5],4,3,2,1-6[2:1]/5,5,7-3[2:1]/5,5,{1}5pp1[4:5],2-4[4:1],
{8}37,,6,6,4,5,3,,24,,3,3,5,4,6,,47,,6,6,5,4,{4}3,2h[4:1]/5,4,{16}4,5,6,7,81,2,3,4,
6/5-2[8:1],,,7,5,,8,,{2}3h[4:1]/7h[4:1],{16}4/6-3[8:1],,,2,6,,1,,2,4,2,4,3,5,{8}3,
46,37,,24,15,,57,48,,2xpp8[8:9],6bxpp4[1:1],,{2},{1},

{4}1^4[8:1]/5-8[8:1],15,5x-2[8:1],8-4[8:1],3-7[8:1],{8}5,5-8[8:1],,1x/5x,,,
8^5[8:1],1,{4}2-6[8:1],4-7[8:1],1-5[8:1],6-2[8:1],{8}4,4-1[8:1]*-7[8:1],,4x,,,
26,26,{4}1q5[8:1]/7,8^3[8:1],7q3[8:1],6^1[8:1],5q1[8:1],4^7[8:1],2q5[4:1],
8h[4:1],{8},8,{4}8-4[8:1],8/4>6[4:1],1bx,,{16}6,5,6,5,{4}7-4[8:1],
7x/3,{16}2,8,2,8,1,7,1,,{4}2/8<4[4:1],4>8[4:1],8<4[4:1],4,1,
{8}3b/4,3b/4,{16}7,8,7,,5b/6,,5b/6,,2,1,2,,{4}38,{16}2,3,4,5,1,8,7,6,{4}5b/1b,
8/3-7[8:1],{8}1-6[8:1],1,2-5[8:1],2,7,,1/6-2[8:1],,8-3[8:1],8,7-4[8:1],7,2,,
1,1,1,1,{16}1,3,1,3,1,3,1,3,1,4,1,5,1,6,1,7,{32}1,2,3,4,5,6,7,8,{4}1b/5,

{8}B6,B4,C,1>7[8:3],,8,8,,1h[4:3],,E8,{16}E7,B6,{4}B5,2,
{8}B4,B6,C,8<2[8:3],,1,1,,8h[4:3],,E2,{16}E3,B3,{4}B4,7,
{16}6h[16:3],,,5h[16:3],,,4,,{4}4-6[8:1],1,
{16}3h[16:3],,,4h[16:3],,,{8}5,5,6,5-1[8:1],
{4},,,8-4[8:1],{8}8x,,,{4}3/5h[4:1],7h[4:1],1^6[8:1],

{4}4bw8[8:1],4,{8}2^5[8:1]/6^1[8:1],15,{4}2/6-2[8:1],6/8-4[8:1],{8}3-7[8:1],3,6-1[8:1],6,2-6[8:1],2,
{4}7,48,{16}3,4,3,,2/5^8[8:1],,25,,2,3,4,5,1,2,3,4,8,1,2,3,{4}48,
5bw1[8:1]/7,5,{8}7^4[8:1]/3^8[8:1],84,{4}7/3-7[8:1],3/1-5[8:1],{8}6-1[8:1],6,3-8[8:1],3,{4}6x,
15,{16}8b,6,8,6,1b,7,1,7,2b,8,2,8,3b,1,4,8,5,7,4,6,3,2,1,8,73,6,5,4,
{4}3v8[8:1]/7-4[8:1],37,{8}2^5[8:1],6^1[8:1],2-6[8:1],6,{4}2,48,{16}6,5,7,4,6,5,6,,
{4}7^4[8:1]/4^1[8:1],74,{16}7,8,7,,6/1^4[8:1],,61,,6,7,8,1,5,6,7,8,4,5,6,7,{4}84,
{4}6bv1[8:1]/2b-5[8:1],62,{8}7^4[8:1],3^8[8:1],7-3[8:1],3,{4}7,51,{16}3,4,2,5,3,4,3,,
{8}2-5[8:1]/5,3,6-1[8:1],7,3-7[8:1],4,3x/7x,5,{16}8b,4,8,4,8,4,8,4,8-4[8:1],15,26,37,{4}48,

{8}2-6[8:1]/6,2/6-2[8:1],26,,8,8-4[8:1],,83,,{16}2,1,{8}2,34,56,78,1,28,
7-3[8:1]/3,7/3-7[8:1],73,,1,1-5[8:1],,16,,{16}7,8,{8}7,16,25,34,45,56,
{4}3b^8[8:1]/7b^4[8:1],3b/7b,{8}5b-1[8:1],2b-6[8:1],5b,2b,{4}8b^5[8:1],8b^3[8:1]/4,8b-4[8:1]/4,8b/4,
{6}3bh[12:1]/5h[12:1],4bh[12:1]/6h[12:1],5bh[12:1]/7h[12:1],
4bh[12:1]/8h[12:1],3bh[12:1]/7h[12:1],2bh[12:1]/6h[12:1],
{12}1b,1,1,3b,3,3,5b,5,5,7b,7,7,{16}2b,1,2b,1,5b,6,5b,6,8b,7b,1b,6b,3b,4b,2b,5b,{1}1bh[1:1],C,,

2>7[4:13],,8hx[2:5],,6^3[4:5],{2}7,7,{1}7p4[4:5],,
{4}34,3,35,{8}3,4,3,5,{4}4,65,6,7,7,75,{8}7,5,6,4,5h[4:1],,{16}E4,B3,B2,E2,E6,B6,B7,E8,
1x-5[8:1],,,8,1,,8,,{2}3h[4:1]/7h[4:1],{16}6-1[8:1],,,4,6,,2,,3,1,3,1,2,8,{8}2,
17,26,,24,15,,57,48,,,2x/6x,,{16}3,5,3,5,2,4,2,4,1,5,2,6,3,7,4,8,5,1,4,8,3,7,2,6,
{24}1,5,1,5,1,5,1,5,1,5,1,5,1,5,1,5,1,5,1,5,1,5,1,5,{1}1b,{2},

4h[2:1]/5,2h[2:1],{4}6h[4:1],1^6[8:1]b,1b/5b^2[8:1]b,{8}5b,6b,,7b/8b,,1b/6b,
1b/6bh[2:1],,8b,8b,{16}8b,1b,2b,3b,4b/1b-5[8:1]b,8b,7b,6b,{4}5b/1b,37,
{16}8-4[8:1],2,8,2,8,,1,,6,5,7,3,4,2,7,8,6,1,5,2,{8}34,18,
{4}5/7-4[8:1],37,{8}3v8[8:1],8V25[8:1],3,7,6-1[8:1],7,2-5V38[8:3],3,7-3[8:1],6,7,,
{16}1,5,1,5,2,6,2,6,3,7,3,7,4,8,4,8,{8}31,28,17,86,{32}1,2,3,4,5,6,7,8,{4}1b/5,
6/2-5[8:1],82,{8}6v1[8:1],1V74[8:1],6,2,3-8[8:1],2,7-4V61[8:3],6,2-6[8:1],3,2,,
37,,28,37,{16}6^3[8:1],5,6,5,6,,1,,1,4,3,6,5,7,2,1,3,8,4,7,{8}65,81,
{4}4/2-5[8:1],62,{8}6v1[8:1],1V74[8:1],6,2,3v8[8:1],2,7-4V61[8:3],6,2-6[8:1],3,2,,
{16}8b,4,8,4,7b,3,7,3,6b,2,6,2,5b,1,5,1,4b,8b,4b,8b,4b,8b,4b,8b,{24}4b,3b,2b,1b,8b,7b,{4}62,

{8}1b-5[8:1]b/5b,1b/5b-1[8:1]b,1b/5b,,6,{4}3-8[8:1]/7-4[8:1],37,{16}6,5,47,,3,4,52,,8,1,{8}27,,
8b-4[8:1]b/4b,8b/4b-8[8:1]b,8b/4b,,3,{4}6-1[8:1]/2-5[8:1],62,{16}3,3,8,7,6,5,1,2,3,4,{8}58,,
7b-3[8:1]b/3b,7b/3b-7[8:1]b,7b/3b,,2,5/1^4[8:1],,{16}51,6,7,8,5,6,7,8,{24}4bx,5,6,7,8,1,2,3,4,{8}51,,
7b-3[8:1]b/3b,7b/3b-7[8:1]b,7b/3b,,2,5h[8:1]/1h[8:1],,51,
{16}8,4,8,4,84,15,26,37,{24}48,5,6,7,8,1,{32}2-7[8:1]/6v3[8:1],5,4,3,2,1,8,7,
{16}2b>2^4[4:13]/6b,Cf,,,{4},,,{1},,,

{2}45,6h[2:1],5h[2:1],4h[2:1],3h[2:1],4h[2:1],5h[2:1],{8}6,,,{24}6,5,4,
{512}3b-6[4:7],Cf,{256},{128},{64},{32},{16},{8},{4},{2},{1},,E

Re:MASTER


  • 追加しました。修正等ありましたらよろしくお願いします。 -- けもがみ (2024-11-21 03:53:53)
  • EXPERT譜面を追加しました。修正等ありましたらよろしくお願いします~ -- Sugar (2026-01-05 15:54:17)
名前:
コメント:

タグ:

+ タグ編集
  • タグ:
最終更新:2026年01月05日 15:54