アットウィキロゴ

snooze

アーティスト wotaku feat.SHIKI

BPM BASIC ADVANCED EXPERT MASTER Re:MASTER
150 4 6 10+ 13+ -

EXPERT MASTER Re:MASTER
譜面制作者 サファ太 Luxizhel -

BASIC


ADVANCED


EXPERT


MASTER

(150)
{4}5<4[2:3],,,,
,,,,
5<4[2:3],,E5,,
,,C,,
5>1[2:1]/6,6,6,5,
4<8[2:1]/3,3,3,3,
{8}2,2,7,7,{16}1,8,1,8,{32}1,2,3,4,8,7,6,5,
{4}Cf,,,,
{16}4h[8:1]/6h[8:1],,,4h[8:1]/6h[8:1],,,46,,{8}35,2,35,6,
{16}7h[8:1]/8h[8:1],,,5h[8:1]/6h[8:1],,,34,,3/4h[8:1],,1,,3h[8:1]/4,,1,,
{16}3h[8:1]/4h[8:1],,,5h[8:1]/6h[8:1],,,78,,7/8h[8:1],,5,,7h[8:1]/8,,5,,
{16}7h[8:1]/8h[8:1],,,5h[8:1]/6h[8:1],,,34,,3/4h[8:1],,1,,3h[8:1]/4,,1,,
{16}3h[8:1]/4h[8:1],,,5h[8:1]/6h[8:1],,,78,,{4}1-5[8:1]/6,8b,
{16}6h[8:1]/5h[8:1],,,4h[8:1]/3h[8:1],,,21,,2/1h[8:1],,4,,2h[8:1]/1,,4,,
{16}2h[8:1]/1h[8:1],,,4h[8:1]/3h[8:1],,,65,,6/5h[8:1],,8,,6h[8:1]/5,,8,,
{16}6h[8:1]/5h[8:1],,,4h[8:1]/3h[8:1],,,21,,2/1h[8:1],,4,,2h[8:1]/1,,4,,
{16}2h[8:1]/1h[8:1],,,4h[8:1]/3h[8:1],,,57,,{4}5h[16:1]/7-2[8:1],3b,
{16}48,,3,3,7,7,1,1,5,5,8,8,4,4,2,2,
3h[24:1]/5h[16:1],,,5hx[16:1]/7hx[24:1],,,8x,,1h[24:1]/7h[16:1],,,2x/6x,2x/6x,,,,
3h[8:1]/4h[8:1],,,5h[8:1]/7h[8:1],,,48,,2h[8:1]/6,,4,,6h[8:1]/2,,4,,
3h[8:1]/7h[8:1],,,2h[8:1]/6h[8:1],,,15,,15,,37,,{4},
{32}2,3,4,,8,,3,,7,6,5,,1,,6,,{16}3,,5,4,36,,,,
{4}2>5[8:1]/5<8[8:1],2b/5b,{8},12,38,,
2-5[8:1],5>3[8:1],2,7,8p4[8:1],1,28,2pp5[8:3],
,5,6<1[4:1],,,,2-4[8:1],,
2-8[8:1],8,2-4[8:1],5,2-6[8:1],8,2,,
7-4[8:1]/5-1[8:1],,5x/7x,,,34,25,,
7-4[8:1],4-8[8:1],7,3,2>5[8:1],1,27,8>2v4[4:1]*<6v4[4:1],
,,,,3x/5x,,48,4/8<2[8:3],
,2,,1,1-4[8:1]*-6[8:1],,1,,
3b/7b,,56,7,18,,2-6b[8:1]/4,,
2-8b[8:1],7-5[8:1],2-4-8[4:1],7,2,,7-5b[8:1],,
7-1b[8:1],2-4[8:1],7-5-8[4:1],2,7,,1,1,
{4}8-4[8:1],8>3[8:1]*<5[8:1],8z4[8:1],8,
3-1-4[4:1]*pp4[4:1],,,2-4b[8:1],
{8}2-8b[8:1],6-4[8:1],2-5-1[4:1],6,2,,8-6b[8:1],,
8-2[8:1],3-5b[8:1],8-4-8[4:1],3,8<2[4:1],,,,
{4}Cf,,,,
3h[1:1],,,4,
4h[1:1],,,5,
5,E7,E6,E5,
{16}3,,3h[16:3],,4,4,,,5h[16:3],,4,4,,,6,5,
,,6h[16:3],,5,5,,,4h[16:3],,5,5,,,3,4,
,,3h[16:3],,4,4,,,5h[16:3],,4,4,,,4h[8:5],5h[16:9],
{4},,,E5,
2-5[8:1]/6,{16},,6,6,6-8-2[4:1],,,5x,,,3x,,
{8},1,3,45,{16}7,8,,6,{4}5,
4/8-4[8:1],,{8}2h[4:1],4,6h[4:1],8,
2,4-8[8:1],6,,7,5,3,1,
6h[8:7],7,1b,,{16}E8,E7,E6,E5,E4,E3,1x-3-5[8:1],,
,,7,7,,8,,1,{4}1-5[8:1],4-8[8:1],
{16}7h[8:1],,,7h[8:1],,,61,,{4}2/5-1[8:1],4b,
{8},37,3/7-4[8:1],,3-8[8:1],,7,,
{16}26,,3,4,2,,6,5,7h[8:1],,4,8h[8:1],,2,6h[8:1],,
{8}1,3,56,8,12,,{12}78,78,78,
{8}5h[8:1]/6h[8:1],,3h[8:1]/4h[8:1],,12,3,78,6,
{16}2,4,,4,{8}2h[8:1],4h[8:1],5h[8:1],7h[8:1],1,,
{16}47,,5,6,4,5,3,4,3h[8:3],,,B4/E5,,,1h[8:3],,
,B2/E3,,,8h[8:3],,,C,,,6h[8:3],,,B5/E5,,,
{8}7,7,68,68,15,15,24,24,
{16}3,5,3,5,4,6,4,6,{32}4,5,6,7,8,1,2,3,4,5,6,7,8,1,2,3,
{4}4-8[8:1]/5-1[8:1],4b/5b`Cf,{16}26,,,1x/7x,,,8xv3<6[4:1]/2x,,
{8},38,1h[4:1],,,17,8,2,2>5[8:1],5p1[8:1],2,6,7p3[8:1],8,27,1-5[8:1],
,1-3[8:1],8-4[8:1],1<6b[8:1],8,1b,,,
2qq4[4:1]/7pp4[4:1],,,,,,35,1/7<3q8[4:1],
,78,2h[4:1],,,1,7,2,
8-4[8:1],4-6[8:1],8,3,2-5[8:1],1,27,8-3-1-4[8:3]*-5-7-4[8:3],
{4},,,3h[8:1]/5h[8:1],
{8},2b/6b,3b/7b,2b/6b,3b-8b[8:1]/7b-4b[8:1],,3b/7b,,
1xb/5xb,,,34,25,,4/7-5[8:1],,
7-1[8:1],3-5[8:1],7-3-8b[4:1],3,7,,1x-5[8:1],,
1>3[8:1],6<8[8:1],1s5b[4:1],6,1,,8x,8x,
,{16}4b/6b,4b/6b,4b/6b,,3b/5b,3b/5b,3b/5b,,4b/7b,4b/7b,,2b/5b,2b/5b,,
{4}7<4[8:1]/8>3[8:1],,25,{8}4/7x>1b[8:1],1,
{8}7<5b[8:1],3-1[8:1],7v4-6[4:1],3,7,,3>1[8:1],8,
3-5b[8:1],7-1b[8:1],3-8[8:1],7-4[8:1],3,7,2<3b[2:1],,
{4}Cf,,,2b-4-8[2:1]/6b,
7,8-2-6[2:1],7,6-8-4[2:1],5,4p8[4:1],{8}5,6,7b-5-1[2:1],,
{4}8,1-7-3[2:1],2,3-1-5[2:1],4,5-7-1[8:3],{8}1,2,3b-1-5[2:1],,
{4}7,5-3-7[2:1],6,7-5-1[2:1],8,1q5[4:1],{8}8,7,6b-8-4[2:1],,
{4}5,4-6-2[2:1],3,2-4-8[2:1],1,8<4[4:1],1,2xb,
3x/4x,{12}25,3,4,2>5[8:1]/5,25,,,,,
,,,74,6,5,7<4[8:1]/4,74,,,,,
{16}3,5,3,5,2,6,2,6,1,7,1,7,2,8,2,8,
2,3,8,7,2,3,8,7,3,4,7,6,3,4,,,
{4}56,{12}38,2,1,3>8[8:1]/8,38,,,,,
,,,61,7,8,6<1[8:1]/1,61,,,,,
{16}2,1,2,1,3,8,3,8,4,7,4,7,5,6,5,6,
4,3,6,7,4,3,6,7,3,2,18,,7xq3[8:1]/8x>3[8:1],,6,,
{4}7b/8b,,,,E

Re:MASTER


  • 追加しました。1行が1小節です。 -- cq (2024-12-06 22:29:02)
名前:
コメント:

タグ:

+ タグ編集
  • タグ:
最終更新:2026年04月08日 19:37