BASIC
ADVANCED
EXPERT
MASTER
(156)
{16}4/6-4[8:1],,,3h[16:11],{4},,{16},,4,3,5,,5,4,,4,{8}6h[4:1],,5,45,,
{16}5/3-5[8:1],,,6h[16:11],{4},,{16},,5,6,4,,4,5,,5,{8}3h[4:1],,4,5/2>5[4:1],,
{4}6,7-3[4:1],4,2-6[4:1],4,7<4[4:1],8,1h[4:3],
{8}4,4,4,4,{16}4,2,5,3,6,4,7,5,8hx[8:1],,,8h[8:1]x,,,17,,{8}2-5[8:1]b/6-1[8:1]b,15,,,
{16}8b/4b,,,,37,,2,1,,7,8,,6-1[8:1],5,7,,4,,,,83,,6,5,,7,8,,2,1,3,8,
4hx[4:1],,,,7,,6,5,,2,1,,7,8,6,,4b/8b,,,,3h[8:1]/4h[8:1],,,4h[8:1]/5h[8:1],,,56,,7,8,6,,
1/2q6[8:1],,,,5x,,,7h[16:3],,,8,,2,1,3,,7p3[8:1],,5,,4x,,,2h[16:3],,,1,,7,8,6,,
3q7[8:1],,5,,6x,,,8h[16:3],,,2,,46,,35,,1b/7b,,,,2h[8:1]/5h[8:1],,,3/4v7[8:1],,,1b,,1b,,,,
4/6-3[8:1],,37,,46,,2,2h[16:3],,,1,3,8,4,7,5,6h[8:1],,8,7,1-5-7-4-8[4:2],,82,,{2}13,
{16}2-6[8:1],,1,,28,,7,7h[16:3],,,8,6,1,5,2,4,3v8[8:1],,,,38,,6,6h[16:3],,,5,7,,3,3,4,
1>4[8:1],,82,,1,,6,6h[16:3],,,8,7,1,6,2,5,3h[8:1],,1,2,8-4-2-5-1[4:2],,17,,{2}86,
{16}7b,,,,1h[8:1]/2h[8:1],,,4h[8:1]/5h[8:1],,,87,,16,,
3,4,2b,,6,5,8b,,3,4,1b,,28,,37,,,,
3b/4b,,34,,5/2h[16:3],,,4,3,,3,,25,,,,71,,62,,5/3h[16:3],,,4,3,,3,,24,3,,3,
5,,6,,4/6h[16:3],,,5,7,,7,,48,,,,38,,47,,6,5,,35,,2,2,4,3h[8:1],,6,5,
7,,7,,B6/E6/1h[16:3],,,4,2,,2,,15,,,,6,,6,,B4/E4/7h[16:3],,,5,6,,6,,46,,4,5,
3,,3,,B4/E5/2h[16:3],,,1,3,,3,,2/4<7[8:1],,,,1hb[4:1],,,,8,2,,2,5,6,3,2,6,7,2,1,
8-4[8:1],,71,,8b,,,3,3>8[8:1],,4,,53,,,,7/8-4[8:1],,1,,82,,,3,3,,24,,1,5,2,6,
3-7[8:1],,4,,35,,,8,8>3[8:1],,7,,68,,,,3/4-8[8:1],,5,,34,,,,1b/7b,,6,5,,5,6,4,
7-3[8:1],,28,,37,,,1,1-5[8:1],,28,,17,,,,6<1[8:1],,5,,46,,,2,2-6[8:1],,13,,82,,,,
7/5-1[8:1],,6,,45,,,2,2-6[8:1]/8-4[8:1],,37,,28,,,,
2b/8b,,,,1,1,1,1,2x/8x,2x/8x,2x/8x,2x/8x,3bxv8[8:1]b/7bxv4[8:1]b,,,,
{1}3b/7-2-5<4[8:12],,
{8}6,5,4,3>8[8:3],,4,5,6,7,7h[4:1],,8,16,25,34,45,
5/6h[1:1],,8,8,,2,3,4h[8:1],,5h[8:1]/7h[8:1],,6h[8:1]/7h[8:1],,78,16,5/2h[8:5],
,E4,E3,E2,8x,8x-3-6-1[4:3],,B3,,B6,,E5,,2h[4:1],,1,
3b/8b,,78,1/6>3-7>2[8:9],,B4,,B6,,B8,,B2,,3,3h[4:1],,
Ch[8:5],,3,2,1,8-2>3[16:3],,8-6>5[16:3],,8,1,2h[4:2],,3,1,8h[4:4],
,,E3,A4,E1,E6,,6h[4:1],,4h[4:1],,2h[4:1],,8h[4:1],,3,
4,5>7[8:3],6,7,,,5,6,7x/8x,1/6h[4:1],,,1w5[8:1],28,,,
3,3,34,45,6,6,65,54,3,3,24,35,6,6,75,64,
3,3,12,38,7,7,87,16,3,3,21,18,7,7,28,28,
{16}1,1,2,2,3,3,4,4,5,5,6,6,7,7,8,8,2,1,3,8,4,7,5,6,3,4,2,5,1,6,8,7,
1,,{48}2x/8hx[8:1],E3,B3,B4,E5,,,,,,,,7x/1hx[8:1],E7,B6,B5,E5,,
,E2,B2,B3,E4,,,,,A7,D7,A6,D6,A5,,,,,A2,D3,A3,D4,A4,,
{16}8b,,,,4/8-4-6-2[8:3],37,26,15,{8}84,7,1b,,
7b/1b-3[8:1],,5/1-5[8:1],6,1/7-3-6[4:1],8,27,1,8v3[8:1],7<4[8:1],8,7,1-4[8:1]b*-6[8:1]b,2,1,,
7<5-1[4:1],8,7,3,2<8-4[4:1],4,2,6,7,7,28,37,4v1[8:1]b*v7[8:1],26,4x,,
2b/6b-4[8:1],,3-7[8:1],3,8-2[8:1],8,2,3,6/4-8[8:1],5,2/4>3-1[8:1],3,6/4<5-7[8:1]b,5,24,3,
8b/4b-8[8:1],,6-3[8:1],5,1x,1,24,6,24,7,3/5<8[8:1],8,1w5[8:1],2,1x,,
3b/7b,,2-6-4-8[8:3],1,2,8,7-3-1-5[8:3],6,7,5,4,3,2>4[8:1]b,6<8[8:1]b,2-6[8:1],6,
2b-4-8[4:1],,2/6x-3[8:1],7,6,1-7[8:1]b,4,5/1-3[8:1]b,6,15,4,15,6,67,8<3[8:1]/1-7-5-3[8:1]b,23,
1b/8b,,1,28,37,6/4-2-8[16:3],53,24,,5-7-1[16:3],46,57,,4,5,6,
{16}57,,8,,24,,1,,6,6,5,7,3,3,4,2,6,5,7,4,8,1,7,2,4,3,7,5,4-8[8:1]/8-4[8:1],37,26,15,
{1}4b/8b,,,,E
Re:MASTER
- 追加しました。間違いあれば修正お願いします。 -- なたか? (2025-01-01 23:03:16)
最終更新:2026年04月05日 00:56