| アーティスト |
sky_delta vs KO3 vs Tanchiky |
BASIC
ADVANCED
EXPERT
MASTER
(190)
{1}5^8[4:3],Ch[1:1],1<5[4:3],{2}3h[2:1],5,
{8}5,5,{4}4/6h[2:1],5,5,46,{8}35,{4}3h[4:1]/5,4,34,
{8}25,{4}2h[4:1]/5,4h[4:1],5h[4:1],7,{8}12,12,,78,,36,
3b/6b,,45,{16}3,4,2,,6,5,6,,2,4,3,,6,5,7,,3,4,2,5,1,6,{4}8^5[8:1],
8^3[8:1],8-4[8:1],8,26,{8}34,2,78,6,{16}3,4,3,4,{4}25,
18,{16}36,,2,1,3,,6,5,7,,3,4,2,,7,8,6,,2,4,3,5,4,6,{4}3^8[4:1]/7,
8^5[4:1],5^2[4:1],{8}1,8,7,{4}61,34,56,{8}12,3/8<1[1:1],,{1}Cf,,
{4}Ch[4:7]/B3/B6,,,{8},1V72[8:5],{1},{4}2^5[4:1],,,6,7^4[4:1],,,3,
{8}2,2,4,4,5,5,7,7,8h[16:1],8h[16:1],8h[16:1],8h[16:1],{4}8-4[8:1],8x,
3h[8:1]/5,3h[8:1]/5,2h[8:1]/4,2h[8:1]/4,2h[8:1]/1,2h[8:1]/4,2h[8:1]/1,{16}24,,3,3,
{4}3,4h[8:1]/2,2h[8:1]/8,8h[8:1]/6,{16}7,7,{8}7,68,15,{2}2-4[8:1]/4-6[8:1],
{4}7h[8:1]/5,2h[8:1]/1,2h[8:1]/4,8h[8:1]/7,{8}5h[8:1]/7,7,2h[8:1]/4,4,5h[8:1]/1,1,{4}7b/8b,
6h[8:1]/1,3h[8:1]/8,6h[8:1]/5,3h[8:1]/4,{16}2x/5x,,,3x/6x,,,{8}47,47,56,3b/8b,,
{16}1h[4:1]/A2,E3,B3,B4,{4}E5,{16}8h[4:1]/A7,E7,B6,B5,{4}E5,
{16}2h[4:3]/D1,D2,D3,D4,D5,D6,D7,D8,D1,D2,D3,D4,{4}D5,
{16}8h[4:1]/A7,E7,B6,B5,{4}E5,{16}1h[4:1]/A2,E3,B3,B4,{4}E5,
{16}7h[4:3]/D1,D8,D7,D6,D5,D4,D3,D2,D1,D8,D7,D6,{4}D5,
{16}7,1,7,1,7,,2,4,2,4,{4}3,{16}7,5,7,5,{4}6,{16}4,5,{8}3,26,26,,
{16}7,8,7,8,6,1,6,1,5,2,5,2,4,3,4,3,{8}4,2,18,7,65,65,3b/7b,,
2-5[8:1],6-1[8:1],2,{4}6^3[8:1],6/8-6[8:1]b,8-2[8:1]b,8w4[8:1],8,{8}26,26,,
7-4[8:1],3-8[8:1],7,{4}3^6[8:1],3/1-3[8:1]b,1-7[8:1]b,1w5[8:1],1,{8}78,16,,
1-5[8:1],6-8[8:1],1,{4}6-3[8:1],2^5[8:1]/6^1[8:1],6/2-6[8:1],2/8-3[8:1]*-5[8:1],8,{8}4,35,26,
1-6[8:1],7,1,{4}4-7[8:1],4/2-6[8:1],{8}2/8pp4[8:5]*qq4[8:5],{1},
1b/7b,,,,{2}2-5-3[2:1],C,7-4-6[2:1],C,1-5-3[8:5],{8}B7,,,Ch[8:5],{4},,,1x,
2h[4:1],{8}4,2h[4:1]/5,,5,2h[4:1]/6,,6,2h[4:1]/7,,7,{4}2-5[8:1]/8,6,
7h[4:1],{8}5,7h[4:1]/4,,4,7h[4:1]/3,,3,72,,18,{16}2,8,2,8,{4}37,
4h[4:1],{8}6,4h[4:1]/7,,7,4h[4:1]/8,,8,48,48,,{16}13,,,28,,,{8}17,
7h[4:1]/1,8,8,4h[4:1]/2,3,3,5h[4:1]/7,6,6,7h[4:1]/1,8,8,{16}8,1,2,3,45,6,7,8,
{1}1h[1:1]/2,2h[1:1],3h[1:1],4>5[2:1],{8}8,8,85,8,85,8,85,8,84,8,73,7,62,6,51,5,
{16}2,4,2,4,3,5,3,5,4,6,4,6,5,7,{8}1b,,2,8,4/7h[8:3],,{16}6,5,4,3,2,1,
8^3[8:1]/5,,6,6,8,,7v4[8:1],,5,5,{8}7,3,35,12,{16}7,8,{8}7,1h[4:1]/6,,{16}7,6,5,4,3,2,
1^6[8:1]/5,,4,4,1,,2v5[8:1],,4,4,{8}2,6,64,87,{16}2,1,{8}2,8h[4:1]/3,,{16}4,5,6,7,8,1,
{2}2-7[8:1]/6-3[8:1],{16}1^6[8:1]/5,,4,4,1,,3,,4x-6[8:1]/8x,,1,1,4-7[8:1],,2,2,4-8[8:1],,3,3,{4}4,
{16}1h[8:1]/2h[8:1],,,4h[8:1]/6h[8:1],,,7h[8:1]/8h[8:1],,,3h[8:1]/5h[8:1],,,
{8}26,26,,3>4[8:3],1,3b/7,{2},
{16}5,6,7,8,2,3,4,5,8x,4,8,4,7x,3,7,3,7,6,5,4,7,6,5,4,7x,3,7,3,6x,2,6,2,
6,7,8,1,4,3,2,1,6x,8,6,8,5x,1,5,1,5,6,7,8,2,3,4,5,8x,1,2,3,6x,7,8,1,
{1}2x-6[2:1]/6x,7p3[2:1],{8}1h[4:1]/2h[4:1],,,7h[4:1]/8h[4:1],,,26,3qq8[8:5]/4pp7[8:5],{1},
{4}1b/5,2b/6,3b/7h[4:1],{8}1bx,1bx,
{4}1-4[8:1],1-6[8:1]/8,1-3[8:1]/2,1-7[8:1]/7x,1-4[8:1]/3x,1-5[8:1]/7x,1/3x,{8}46,37,
2bx-5[8:1]/8bx-5[8:1],1bx,2bx/8bx,,{16}3bx/7bx,3bx/7bx,,2bx/6bx,{8}2bx-5[8:1]b/6bx-1[8:1]b,1bx/5bx,
{4}2bx/6bx,4hb[8:1]/8hb[8:1],5hb[8:1]/7hb[8:1],2hb[8:1]/4hb[8:1],
{4}8b-5[8:1]b/7,8b-3[8:1]b/1,8b-6[8:1]b/7,8b-2[8:1]b/2x,8b-4[8:1]b/6x,8b/2x,{8}35,35,{16}7,1,{8}7,
2-4[8:1]/6-8[8:1],26,{4}2-6[8:1]/6,2/7-3[8:1],7/1-5[8:1],1/6V82V86[2:1],2,6,2,
{8}35,2,18,7,{16}6^1[8:1],4,,4,6,,2,3,{8}4,48,7,62,{16}5-1[8:1],1,,1,{8}5,,
82,3,45,6,{16}7-4[8:1],8,,8,7,,2,2,{8}5,46,37,28,{16}1,1,1,1,{8}28,,
64,7,81,2,{16}3^8[8:1],5,,5,3,,7,6,{8}5,51,2,37,{16}8-4[8:1],2,,2,{4}8,
{16}2,1,3,8,4,7,5,6,8,7,1,6,2,5,3,4,2,8,5,6,1,7,3,4,
{32}1,8,7,6,5,4,3,2,{4}1bV35[8:1]b/5bV71[8:1],{1}1/5/A3f/A7,,,,E
Re:MASTER
- 追加しました。修正等ありましたらよろしくお願いします。 -- けもがみ (2025-01-07 04:29:42)
最終更新:2026年04月09日 22:35