BASIC
ADVANCED
EXPERT
(190){1}4-1[1:1],5-8[1:1],1-4[1:1],8-5[1:1],{2}4h[1:4],,E5,C,E1,C,E5,B5/B4,Ch[1:7],,B4/E4,E3,B1/E2,,B7/E8,E1,B2/E2,,B4/E4,D3/E3,B1/E2,D1/E1,B7/E8,,1pp4[4:7]/7h[1:1],,,,6pp1[4:7],,,,3pp6[4:7],,,,8z4[4:5],,,,{4}3/4,3/4,3/4,3/4,2/4,2/4,2/4,2/4,1/4,1/4,1/4,1/4,8/4,8/4,8/4,8/4,7/4,7/4,8/4,8/4,1/4,1/4,2h[4:1]/4,4,3h[4:1]/4,4,5h[4:1]/4,4,3h[4:1]/4,4,4/5,4,4/B5/E6,4,E7/4,4,E8/B8/4,4,C/4,4,B1/E2/4,4,C/4,4,B2/B3/E3/4,4,E1/B1/B8/4,4,{8}4/7,6,4/5,,4/5,,4/5,,3/4,,2/4,,1/4,,1/4,,4h[8:7]/2,2,2,2,2,2,2,2q4[8:5],{1},
{16}5-8[8:1]b,,,,,,,,1h[16:3],,,7h[16:3],,,1h[16:3],,,7h[16:3],,,8,,8,,1/7,,,2h[16:3],,,8h[16:3],,,2h[16:3],,,1,,1,,2/8,,,7h[16:3],,,1x,,{8},2x/6x,2/6,2/6,2b/6b,,5/3>5[1:2]b,,{1}Cf,,{4}8h[2:3],,,,4h[2:1],,,8/4,
{4}2b-6[8:1]/6b,7-1[8:1],5,4,3-7[8:1]/5,6-4[8:1],{8}1,1,1,,{4}7-3[8:1]/3,4-6[8:1],1,8,7-4[8:1]/1-5[8:1],,3b/6b,,7b-3[8:1]/1b,2-8[8:1],4,5,6-2[8:1]/4,3-5[8:1],8,7,{8}2h[4:1]/6,,4,4,4h[4:1],,6,6,6h[4:1],,8,8,8-4[8:1],,,,{4}3h[8:1],3h[8:1],3h[8:1]/5h[8:1],3h[8:1]/5h[8:1],3h[8:1]/4h[8:1],3h[8:1]/4h[8:1],3h[8:1]/2h[8:1],3h[8:1]/2h[8:1],3h[8:1]/1h[8:1],3h[8:1]/1h[8:1],3h[8:1]/8h[8:1],3/8,{8}7,6,5,4,3,2,1-4[8:1]*-6[8:1],,{4},,4bx/6hx[2:1],8,5h[2:1],8,4h[2:1],1,3hb[4:5],,,,,,{8}3,3,3,3,
{8}5b,5,4,6,3,3,4,2,6,5,4,3,7,6,5,4,3,3,4,2,6,6,5,7,3,3,6,6,{16}4,5,4,5,4b,,,,{8}7,6,5,6,4,3,2,3,8,7,6,7,1,2,3,2,5,6,1,2,8,7,4,4,3/5,3/5,2/6,2/6,{16}1,7,1,7,1,7,1,7,{1}1bxv2V46[4:3],8v7V53[4:3],2v3V57[4:3],{4}8,7,6-4[8:1],3,{8}2,2,1/3h[4:1],,4,4,3h[4:1]/5,,6,6,7h[4:1]/5,,8,8,1h[4:1]/7,,8,7,6h[4:1],,8,1,2h[4:1],,4,4,4/3,4/5,5/6b-1[8:1],,2b-5[8:1],,{2}8bh[1:3],,,,
{2}E5/B5/B4/Cf,,1h[2:1],2h[2:1],3h[2:1],Ch[2:3],,,1h[2:1],8h[2:1],7h[2:1],6h[2:1],Ch[1:1],,E1/B8/B1,B2/B3/E3/B6/B7/E7,{4}4>1[4:1],5<8[4:1],,1,2>5[4:1],1<6[4:1],,5,5>2[4:1],6<1[4:1],,2,1,8>3[4:1]*<5[4:1],,,4p8[4:1],6,7p3[4:1],1,2p6[4:1],4,5p1[4:1],7,8bh[2:1],,1,{8}1/8,2/7,3x/6x,,4,4,3/5-3[8:1]b,,2<5[1:3],,{1},,,{2}4,4,4h[4:1]/5h[4:1],5h[4:1]/6h[4:1],6h[4:1]/7h[4:1],7h[4:1]/8h[4:1],1h[4:1]/8h[4:1],1h[4:1]/2h[4:1],2h[4:1]/3h[4:1],4h[4:1]/3h[4:1],
{8}2,2,4,4,6,6,4,4,2,2,8,8,6,6,8,8,2,2,4,4,6,6,8,8,1,1,3,3,5,5,7,7,5,3,5,7,5,3,5,7,1,3,1,7,1,3,1,7,{16}1,8,1,8,1,8,1,8,2,7,2,7,2,7,2,7,{4}3h[2:1],,4-1[8:1],2b-7[8:1]b,{1}8h[4:23],,,,{8}5h[4:1],,,5h[4:1],,,5h[4:1],,,5h[4:1],,,5h[4:1],,,,4h[4:1],,,4h[4:1],,,5h[4:1]/3,,,5h[4:1]/3,,,2/6-4[8:1],,1-4[8:1]b*-6[8:1]b,E
MASTER
(190)
{1}1^4[4:5],8^5[4:5],{2}4,4h[2:1],,36,{1}8^5[4:5],1^4[4:5],{2}5,6,5h[2:1]/6h[2:1],{4},47,
{4}5/6h[8:7],3,1,{8}7,7h[1:1],,,{4}4,2,{8}8,8h[1:1],,,{4}5,3,{8}1,1,,E3,E7,C,2x/7x,E6,E4,E5,
{4}4x/3hx[8:7],6,8,{8}2,2h[1:1],,,{4}5,7,{8}1,1h[1:1],,,{4}4,6,{8}8,8,,B7/E8,B3/E4,B5/E6,B1/E2,E7,E3,C,
{1}3b^6V82V46[2:5]/6b^1V35V71[4:13],,,,
{8}2h[4:1],4,5,2h[4:1],4,5,3h[4:1],5,6,3h[4:1],5,6,4h[4:1],6,7,8,
1h[4:1],2,2,3h[4:1],8,8,7h[4:1],4,4,5h[4:1],6,6,47,3,{4}2-6[8:1]/8,
2b/4b,5,{8}6h[4:1],5h[8:1],,4h[4:1],5h[8:1],,7h[4:1],6h[8:1],,3h[4:1],4h[8:1],,
5,4,2,3,4h[4:1],3h[8:1],,2h[4:1],3h[8:1],,5h[4:1],4h[8:1],,1,2,3,
4h[8:3]/5,6,7h[2:1],,6,6h[2:1],,8,8h[2:1],,1,1h[8:3],,7,7,,
5h[8:3]/4,3,2h[2:1],,3,3h[2:1],,1,1h[2:1],,8,8h[2:1],,2,3,4,
57,,{16}7-5[32:3],,,8,7,,2-4[32:3],,,1,2,,{4}6,{16}8-6[32:3],,,1,8,,4-2[32:3],,,5,4,,
{4}7,{16}6-4[32:3],,,7,6,,2-8[32:3],,,3,2,,6,,7,8,7,,2,1,{8}2,34,56,27,
81,1,12,2,23,3,34,4,45,5,56,6,67,7,78,8,81,{16}2,4,3,5,2,6,3,7,4,8,5p8^3[8:5]b,1p4^7[16:9],6,2,{1},
{4}2-5[8:1]/6-1[8:1],2b/6b,{16}48,7,6,4,3,2,6,5,4,2,1,8,{8}7h[16:1]/3h[16:1],8h[16:1]/4h[16:1],
{16}15,6,7,1,2,3,7,8,1,3,4,5,{8}6h[16:1]/2h[16:1],5h[16:1]/1h[16:1],
{16}8,8h[8:1],,6,6h[8:1],,4,4h[8:1],,2,2h[8:1],,{8}1-6V84[8:3],28,{2},
{64}B4/B5/E4/E6,B3`B6,B2`B7,E2`E8,{16}1bx/8bx<2>7[16:51],,,{4},{8}1h[4:1],,,1h[4:1],,,1h[4:1],,,1h[4:1],,,{4}8,8,
{8}1h[4:1],,,2h[4:1],,,3h[4:1],,,46,{32}E6,E5,E4,E3,E2,E1,E8,E7,
{8}E6/2bx-4[8:1],,6V85[4:1],6,1V72[4:1],1,,4-8[8:1],4,,1V38-4[8:3],1,7-5[8:1],7,,,
7/2-8[8:1],,6V47[4:1],6,1V38-4[8:3],1,,5,5,,{24}6,7,8,4,3,2,{4}1-4[32:3]/8-5[32:3],1b/8b,
2/7-5[8:1],{8}3V14[4:1],3,8V27[4:1],8,,5-1[8:1],5,,8V61-5[8:3],8,2-4[8:1],2,{4},
1b-3[8:1]/8b-6[8:1],18,{8}45,4z8^1s5[8:5]/5s1^8z4[8:5],36,4b/5b,{2},A4/D5f/A5,
{8}7-1[8:1],5,5,5,3-1[8:1],5,5,5,7^1[8:1],5,5,5,3^1[8:1],5,5,5,
7h[48:11],5,{48}5/D8,A8,D1,A1,,,{8}5,3h[48:11],5,{48}5/D3,A2,D2,A1,,,{8}5,
7h[8:1],6h[8:1],5h[8:1],4h[8:1],3h[8:1],2h[8:1],1p4[16:5],8<4[16:3],{2},
{8}3x/7x,5^8[8:1],5,5,3,5^2[8:1],5,5,7,5<3q4[4:5],5,5h[4:5],,{2},,,{8}46,25,47,
3b/8b,{16}1,2h[8:1],,8,,7,7,,6,5,6,5,6,,34,,2,4,3,5,4,6,5h[8:1],,7,4,8,3,1,2,
8,3,8,3h[8:1],,4,,5,5,,7,8,7,8,6,,4,5,4,5,3,2,1,8,4,3,2,1,5,4,3,2,
6bx/1bx,,8,7h[8:1],,1,,2,2,,3,4,3,4,3,,65,,7,5,6,4,5,3,4h[8:1],,2,5,1,6,8,7,
1,6,1,6h[8:1],,5,,4,4,,2,1,2,1,3,,5,4,5,4,5,6,7,8,15,4,3,2,15,6,7,8,
{2}1bx-6[8:1]/5bx-2[8:1],{8},{32}2,1,,,{8}3h[8:1],4h[8:1],{4}3^6[4:1],6^1[4:1],1^4[4:1],4qq5[2:1],
{2}6h[2:1],{8},{32}7,8,,,{8}6h[8:1],5h[8:1],{4}6v1[4:1],1<5[8:3],2v5[8:1],,
{8}2x/4-7[8:1]b,5,46,,7x/5-2[8:1]b,4,53,,2x/4-8[8:1]b,35,46,,7x/5-1[8:1]b,64,53,,
2x/4-1[8:1]b,35,4b/6,7,7x/5-8[8:1]b,64,5b/3,2,2x/7x,{24}3,4,5,6,7,8,1,2,3,{4}4w8[8:1],4x,
{1}Chf[1:2]/B2/B3/E3/B5/B6/E6,,
8bxqq6qq4qq2qq8pp2pp4pp6pp8[4:27]b,2hx[2:1],1hx[2:1],8hx[2:1],
{2}1x,1x,{1}2hx[2:1],Ch[1:1]/B4/B5,{2},1b/8b,
2>6[1:1]/7,A8/B8/E1,6p8[1:1],A7/B7/E8,8>4[4:3],A6/B6/E7,{8}5,E4/E6,,36,E3/E7,,27,,
{2}3/4<8[1:1],A1/B1/E1,{4}8q5[4:3],1x,2x,3x,4x,{12}3,4,2,6,5,7,2,1,3,48,7,6,5,4,3,26,5,4,3,2,1,
{8}8bx/6bx<2[2:1],,E4,E5,E6,,7x,7x>3[8:5],,E4,E5,E6,E7,,8x,
8x>4[8:5],,E5,E6,E7,E8,,1x,1x,,E3,E7,C,2bx/7bx,E6,E4,E5,
4bx/3bx>7[2:1],,E6,E5,E4,,2x,2x<6[8:5],,E6,E5,E4,E3,,1x,
1x<5[8:5],,E5,E4,E3,E2,,8x,8x,,E7,E3,C,7bx/2bx,A3/E4,A6/E6,D5/E5,
1bx/7bx,{16}3-1[32:3],5,4,,3,,6-4[32:3],8,7,,6,,2-4[32:3],8,1,,2,,7-1[32:3],5,{8}6,7,2,3,4,
57,{16}6-8[32:3],4,5,,6,,3-5[32:3],1,{8}2,3,8-6[32:3],
8-2[32:3],8x-5[32:3],8x-3[32:3],8x-4[32:3],8x,8x,1x,2x/7x,
{16}1b,2,3,4,7b,8,1,2,5b,6,7,8,3b,4,5,6,8b,1,2,3,6b,7,8,1,4b,5,6,7,2b,3,4,5,
1b,5,1b,6,1b,7,1b,8,1b,2,1b,3,1b,4,1b,5,{4}1bv4V25[8:3]*v6V85[8:3],,,3hb[48:11]/7hb[48:11],
{48}E3/E7,B2/B6,B1/B5`Cf,E1/D1/E5/D5,,,{8},{1},,,{4},,,
{8}3h[4:7]/5h[4:1],,,6h[4:1],,,7h[4:1],,,8h[4:1],,,1,,1h[96:215],,
4h[4:1],,,5h[4:1],,,6h[4:1],,,7h[4:1],,,8,,8h[96:23],,
{96}D2/D8,A2/A7,D3/D7,A3/A6,D4/D6,A4/A5,{1}D5f,,,,E
Re:MASTER
- 追加しました。修正等ありましたらよろしくお願いします。 -- けもがみ (2025-01-12 06:48:45)
- EXPERT譜面を追加しました。修正等ありましたらよろしくお願いします。 -- Sugar (2026-02-25 22:49:17)
最終更新:2026年06月23日 14:44