| アーティスト |
Ashrount vs. 打打だいず |
BASIC
ADVANCED
EXPERT
MASTER
(216)
{1}4b>5[4:13]/5b,E7,E1,E3,4/5<4[4:11]b,E4,E1,{2}E6,45,
{12}2b/6b,,,3,5,3,5,,,6,4,6,4,,,3,4,3,5,4,5,3,,,
7b/3b,,,6,4,6,4,,,3,5,3,5,,,6,5,6,4,5,4,6,,,
2b/5b,,,2,4,3,5,,,5,3,4,2,,,2,4,3,5,3,4,2,,,
7b/4b,,,7,5,6,4,,,4,6,5,7,,,7,5,6,4,6,5,7h[4:1],,,
{1}Ch[4:3],{16}2bx,8bx,2bx,8bx,2bx,8bx,2bx,8bx,{4}1bx-5[8:1]b,1bx/7bx,
{4}6-1[8:1],2,{12}2,,8,8,,3,{4}3^6[8:1],6,7^2[8:1],3,
4p8[4:1],8p4[4:1],4V28[4:1],8^5[4:1]*V64[4:1],,,43,21,
{12}2-5[8:1],,8,2,,,7p3[8:1],,8,7,,,1-5[8:1],,8,1,,,6-1[8:1],,4,6,,,
2,3,4,58,7,6,51,2,3,{1}4V28[2:1]/8V64[2:1],{4}15,
{4}3bv6^4p8[2:1]/7b,7,7,7,6^1[8:1],2,3^8[8:1],7,
5q1[4:1],1q5[4:1],5V71[4:1],1>8[2:1],Cf,,,18,
{12}2h[6:1],,1,2,8,3,7h[6:1],,8,7,1,6,2h[6:1],,1,3,8,4,7h[6:1],,8,6,1,5,
{2}2-4[8:1]/4-8[8:1],7-5[8:1]/5-1[8:1],2-6[8:1]/4q8[8:1],7-3[8:1]/5p1[8:1],
{1}E1/B1/Cf/B5/E5,,{4}3,3h[4:3],E4,,5,5h[4:3],E5,,4,4h[4:3],E5,,6,6h[4:3],E6,,
4,4h[2:1],5,{1}5qq8[4:3],{4}1b,
1-5[8:1],1/7-3[8:1],7/4-1[8:1],4/8-4[8:1],8/2-6[8:1],2/5-8[8:1],5/3-8[8:1],3/7-4[8:1],
7/1-5[8:1],1/6-1[8:1],6/2-6[8:1],28,{12}7,5,7,5,,3,4,,1,8,,,
78,,7,6,,6,5,,5,4,,4,3,,3,2,,2,1,,1,8,,,7,1,7,1,,,2,8,2,8,,,
7,5,6,2,4,3,{2}4-8[8:1]/5-1[8:1],{1}2h[1:1]/7,{4}3b-7[8:1],2b-6[8:1],1bw5[8:1]b,1b,
7<3[4:1],{12}3v8[4:1],2,1,{4}8-4[8:1]b,1x,2>6[4:1],{12}6v1[4:1],7,8,{4}1-5[8:1]b,8x,
7<3[4:1],{12}3v8[4:1],2,1,{4}8,2x-7[8:1],2/5-1[8:1],5/3-6[8:1],38,47,
{12}1h[6:1]/2,,3,1,2,7,8h[6:1],,6,8-4[8:1],7,1,{4}8-2[8:1]*-6[8:1],8w4[8:1],8,26,
{12}4,4,4,35,,,6,6,6,57,,,8,8,8,8,8,8,{2}1b-4[8:1]/7b-4[8:1],
{4}6<2[4:1],{12}2v5[4:1],3,4,{4}5-1[8:1]b,4x,3>7[4:1],{12}7v4[4:1],6,5,{4}4-8[8:1]b,5x,
15,{16}15,26,37,48,{4}51,{16}51,48,37,26,{4}1bqq2[12:5]b/5bqq6[12:5],,,{12},,2x/6x,,,
1,7-3[8:1],,7,1-5[8:1],,1,8-4[8:1],,8,2-6[8:1],,2,7-4[8:1],,7,{4}2,35,
{12}3b,3,4,2,2,1,3h[4:1],,,6b,6,5,7,7,8,6h[4:1],,,1b,1,1,8,8,8,
{1}3bqq5[4:5]b/7bpp5[4:5],{4},,,46,7h[4:1],{12}5,,6,4h[4:1],,,5,,4,6h[4:1],,,
5,,6,5,,5,4,,4,2,,2,4,,3,6,,6,4,,5,3,4,3,5,4,5,2,4,2,6,4,6,
1b,,,A2,B2,C,B6,,,A7,B7,C,{4}B3,2,2,1^6[8:1]b/7,
1b/5bh[3:2],{12},,7-3-1[3:1],{2}7,{12}5,5,8,6V85-1[2:1],6,1,{2},
{4}4h[3:2],{12},,1V72[3:1],{2}1,{12}4,4,1,3-6-2-5[2:1],3,8,{2},
{4}8h[3:2],{12},,7-4-2[3:1],{2}7,{12}7,7,1,6V47-3[2:1],6,8,{2},
{4}1h[3:2],{12},,2-5-8[3:1],{2}2,{12}1,2,3,7,6,5,2,3,4,{4}56,
8b/4bh[3:2],{12},,2p6^8[3:1],{2}2,{12}4,4,1,3^1-4p8[2:1],3,8,{2},
{4}5h[3:2],{12},,8^3p7[3:1],{2}8,{12}5,5,8,6p2-7-4[2:1],6,1,{2},
{4}1h[3:2],{12},,2v5^7[3:1],{2}2,{12}2,2,8,3V52-7[2:1],3,1,{2},
{6}6h[6:1],{24}8,1,2,3,{6}4,3h[6:1],{24}1,8,7,6,{6}5,
{12}2,4,3,7,5,6,2h[4:1],,,1-5[8:1]b,3,7,
{32}1b,Cf,{16},{8},{4},{2},{1},,,{2}B5/E5,B7/E7,B3/E3,B8/E1,Ch[1:1],,,27,
{4}3/E5,3,3/E6,3,3/E7,3,3/E8,3,6/E5,6,6/E4,6,6/E3,6,62,
{12}3,5,1,7h[4:1],,,2,8,4,6h[4:1],,,3,7,5,1,3,5,1,7,4,8,2,4,8,6,2,
{1}8bh[1:1],{16}E2,E3,E4,E5,E1,E8,E7,E6,{24}D1,D2,D3,D4,D5,D6,D7,D8,D1,D2,D3,D4,
{1}D5/Chf[4:5],{4},1x,8x/B3/E3/E4f,2x/B6/E6f/E7,
1^4[8:1]/8^5[8:1],1b/8b,3-1[8:1],3-5[8:1]/7-1[8:1],
3/7-5[8:1],1^3[8:1]/7-3[8:1],1-5[8:1]/7^5[8:1],17,
4h[2:1],{24}3,2,1,8,7,6,{4}5h[2:1],{24}6,7,8,1,2,3,
{4}4-7[8:1]*^7[8:1],4-1[8:1]*^1[8:1],4w8[8:1],4,{12}2,1,4,5,8,7,2,1,6,7,3,5,
{4}2b/6bp1[4:1],{12}2x,3x,4x,{4}5x,4-1[8:1]/8v5[8:1],
4b/8b,6pp1[2:1],{6}2,3,4,{4}5V31[4:1],1V75[4:1],5,1,
37,{12}2,1,3,{6}4bh[12:1]/8bh[12:1],6bh[12:1]/7bh[12:1],3bh[12:1]/4bh[12:1],
{4}2bqq7[12:5]/6bqq3[12:5],,,{12},,16,,,
8,7-3[8:1],,7,6-2[8:1],,6,5-1[8:1],,5,4-8[8:1],,4,3-7[8:1],,3,{4}2,16,
{12}52,3,4,52,3,4,52,,,47,6,5,47,6,5,47,,,2,8,3,7,4,6,
E2,E3,E4,E8,E7,E6,C,,,D8,D7,D6,D2,D3,D4,E1,,,1,2,3,8,7,6,
51,2,3,42,3,4,53,,,58,7,6,57,6,5,46,,,83,2,1,82,1,8,
{1}7h[1:1]/1<4[2:1],{16}3b,7b,3b,7b,2b,6b,2b,6b,1b-5[8:1]b,5b,1b,5b,{4}1b,
7h[4:1],{12}5,7,3,{4}5h[4:1],2h[4:1],{12}4,2,6,{4}4h[4:1],
7h[4:1],{12}5,7,3,{4}5-1[8:1],5/2-6[8:1],2/8-4[8:1],83,
{12}2h[6:1],,1,1-5[8:1],2,8,1,,,7h[6:1],,8,8-4[8:1],7,1,8,,,
2h[6:1],,1,1-5[8:1],2,8,1,,,8,5,5,1,3,3,8,6,6,7,1,1,4,8,8,5,2,2,
{24}4bh[12:1],,1,8,7,,4bh[12:1],,1,2,3,,4bh[12:1],,1,8,7,,
5bh[12:1],,1,2,3,,8bh[12:1],,7,6,5,,8bh[12:1],,3,4,5,6h[3:2],{2},{8},
{32}2z6[8:29]b,15,84,7s3[32:113]/3,{1}6b/2b,,,{4},,,{8},
{16}Ch[16:1]/B1/B4/B5/B8/E1/E5,{1},,,,E
- 追加しました。修正等ありましたらよろしくお願いします。 -- けもがみ (2025-01-13 01:56:49)
最終更新:2025年01月13日 01:56