| アーティスト |
千寿 暦(CV.鳥部万里子)、ラモーナ・ウォルフ(CV.田中美海)、王 雪(CV.花井美春)、リリヤ・クルトベイ(CV.安齋由香里)、与那国緋花里(CV.下地紫野) |
BASIC
ADVANCED
EXPERT
(170)
{1},,,,3/5-8[4:1],6/4-1[4:1],8^3[4:1]*^5[4:1],4-1[4:1]/5-8[4:1],
{8}18,,24,24,,57,57,,3,3,4,2h[4:1],,4,4,,
56,,78,78,,12,12,,38,,38,,2b/6b,,,,
{4}3,3h[4:6],4,4,5,5,4,5,6,6h[4:2],5,5,4qq2[4:1]*pp6[4:1],,,,
7,7h[4:5],5,5,4,4,5,46,35,2,{8}17,,8,8w4[8:3],,,,,,,{4}26,
{8}45,,3,3,4,,25,,47,,6,6,5,,47,,35,,2,2,1,,38,,16,,7,8,1bx/6bx,,,,
18,,2,2,1,,38,,16,,7,7,8,,78,,56,,78,,12,,34,34,,56,56,,1b/8b,,,,
1/2h[4:9],,4,4,,5,,4,,3,3,,4,,4,,3,,1,1>8[8:5],{4},,,,,,
{8}4/7h[4:9],,5,5,,4,,5,,6,6,,5,,5,,6,,8,8,,17,,2pp1[2:1]/6pp5[2:1],,,,
2h[4:1],,4,4,,45,,5h[8:3]/7h[8:3],
,,,,18,,12,,
2h[4:1]/4h[4:1],,,2x/4bx,,4x/5bx,,5bx/7h[8:3],
,,5h[4:1],,4h[4:1],,2,,
3h[4:1]/4h[4:1],,,25,2h[2:1]/5q1[4:1],,,,,,
{4}38,47,56,78,{8}2,2,1,,7,7,8,,
{4}18,2,34,5,{8}46,46,,35,,4^1[4:1]/5^8[4:1],,,,,,,
{4}1^6[8:1]/2h[4:5],,1^6b[8:1],,1^6[8:1],,1,1b/2b,,45,6h[4:1],8h[4:1],1h[4:1],
{8}3,3h[8:3],,5,5,,{4}46,
3h[4:5]/5^8[8:1],,5^8b[8:1],,5^8[8:1],,5,4b/6b,
38,2h[4:1],4h[4:1],6h[4:1],{8}8,8,,1,1,,{4}2b/6b,
78,7q6[8:3]/8>5[8:3],,,,
2hx[4:1]/8x,4h[2:1],5bh[4:1],,
68,45,13,2p3[8:3]/8<3[8:3],,,,
1x/2x,1x/2x,46,87,{8}25,2<3[2:1]/5h[4:3],,,,,,,,,
{4}2h[4:1],4,7h[4:1],{8}5,5,,12,12,,{4}2bh[4:1]/6bh[4:1],,
47,36,2h[2:1]/5,4,7h[2:1],5-1[4:1],,,
{8}28,,57,57,,24,24,,3x,4x,5x,6hx[4:1],,8,8,,
7x,8x,1x,2x,,1^6[4:1]/2^5[4:1],,,,,,,
4bx/8bx,4bx/8bx,4bx/8bx,4bx/8bx,
,,,,E
MASTER
(170)
{1},,,,2/4<8[8:3],7/5>1[8:3],1<5[8:3]/8>4[8:3],{2}3h[4:1]/6h[4:1],{16}4,5,4,5,{8}4,,
5-1[8:1]/7,,6,6h[4:1],,8,8,,5-8[8:1]/1,,3,3h[4:1],,8,{4}8<4[4:1],
4>8[4:1],8<4[4:1],4>8[4:1],8<4[4:1],4,8,2b/6b,,
3h[1:1],4,4,4,5h[1:1],4,4,4,1^4[8:1],6,8^5[8:1],3h[4:1],1h[4:1],8h[4:1],6h[4:1],4,
3-8[8:1],5,6-1[8:1],4,{2}1-5[8:1]/8-4[8:1],3h[4:1]/6h[4:1],
{4}57,45,24,{8}45,45,,27,27,,{16}1,8,1,,{4}2b/7b,
6^1[4:1],4,4,3,2^5[4:1],8,8,8p4[8:1],3,1q5[8:1],6,7-4[8:1],2h[2:1],8,{2}B6/B7/E7f,
1-6[8:1]/2-5[8:1],8-3[8:1]/7-4[8:1],{4}5,2-5[8:1]/6-1[8:1],,4-1[8:1]/8,
6,5-8[8:1],3,{8}1>8[2:1],1,{4},,,1x/8x,
7h[4:1],{8}5,5h[4:1],,4h[4:1],,2h[4:1],,8,{4}8-4[8:1],2-6[8:1],7-2[8:1],
3qq5[2:1],{8}8,8h[8:5],{4},,4,57,{8}2,2,4,4,
3h[4:1],,1,1h[4:1],,8h[4:1],,6h[4:1],,4,{4}4-8[8:1],7^2[8:1],3^6[8:1],
1,{8}8,8,,{2}5-1[8:1]/7-4[8:1],{8}2,{4}2,8x,1x-4[8:1]/7x-2[8:1],,
{8}8x,8,,7<3[4:1],,1,{4}1h[8:11],,4,2>7[8:3],,,{8},{2}7-4[8:1]/8-3[8:1],{8}25,25,,
4/7h[4:7],,{2}3V52-6-1[1:1],,,{4}1,24,5^8[8:1],3h[4:3],8-4[8:1],,5,
46,4-7[8:1]/5-2[8:1],,18,2h[4:1],{8}4,4,,4^1[8:1]/6,,5,,5,6,7,3hx[4:7]/8x,,{2}1<5[8:1],
1V75[8:1],1<5[8:1],1-5[8:1],{8}6,6,4,,18,,3qq6[2:1]/5,,6,6,,7,7,,2h[4:7]/8b,,{2}5<1[8:1],
5V71[8:1],5<1[8:1],{4}5-1[8:1],3h[1:1],4>7[4:1],,,4,{8}24,24,,57,5-8[8:1]b/7,,6b,,{2}1^3[8:1]/5^7[8:1],
2^4[8:1]/6^8[8:1],{8}26,26,5,3,{2}2-5[8:1]b/6-4[8:1]b,{8},17,
17,,24,,57,,18,18,,56,{2}5-2[8:1]/6-2[8:1],{8}1,1,4,,23,,18,,57,5pp1[8:3]/7h[8:7],{4},,,1x,
2-4[8:1]/4,6,57,{8}8,8h[4:1],,5,{4}5-1[8:1],,1-3[8:1]/8-4[8:1],
1x/8x,8-6[8:1]/1-5[8:1],8x/1x,{8}28,2/8-4[8:1],,5,{4}5^2[8:1]b*^8[8:1]b,,,
2/4-8[8:1],{8}3,3,,8,1-3[8:1]/7,,8-6[8:1],,2,2h[4:1],,4,4qq7[2:1],{4},,,
1^4[8:1]*^6[8:1],,{8},8h[8:5],,5bx,3bx,4bx,{1}6bx,,,,E
Re:MASTER
(170)
{1},,,{2},{16}5,4,5,4,{4}5^8[8:3],3hx[2:1],,,4^1[8:3],6hx[2:1],,,
{1}1^4[8:3]/8^5[8:3],{4}45,3h[4:1]/6h[4:1],,{16}36,,4,5,4,5,4,5,
{8}3-6[8:1],,8,8,,7,7,5,6-3[8:1]/4,,1,1,,2,2,4,
3qq8[2:1],,5,5,,7,7h[4:1],,{2}1-5[8:1],3b/7b,
{8}35,,35,6,57,,57,4,35,,35,6,{2}5h[4:1]/7h[4:1],
{8}6^3[4:1]/4,,2,2,1-5[4:1],,8,,7h[4:1],,5,5,6,,57,,
46,,46,3,24,,24,5,46,,46,3,{4}2h[4:1],4-7V51[4:3],
1,2,3,{8}4x,4hbx[4:1],,8,8,8,{16}7,5,7,5,{8}4x/6x,,
53,2,1,87,87,6,5,46,46,7,8,12,12,38,47,6,
3^8[8:1],3,7,6,5-1[8:1],5,2,3,4-8[8:1],4,7,6,5/1x,,{16}7,5,7,5,
{8}8V64[4:1]b,,1,1,2,2,{16}3,4,3,4,{8}3V17[4:1]b,,5,5,6,6,{4}7-4[8:1]/8-4[8:1],
7b/8b,2-5[8:1]/1-5[8:1],2b/1b,{8}37,{4}3V51[16:5]/7V51[16:5],,,
{8}8,1,2,3h[8:7],,5,5,,4,,Ch[8:5],{4},D4/E4,D3/E3,D2/E2,{1}2h[1:1]/1V73[8:3],
{8}1,,34,34,,56,56,,7hx[8:9],,5,{4}5bx,6bx,8hbx[4:1],{8},
{4}7/8-3-6-1[4:3]b,E8,C,A7,{8}8x,8hx[4:1],,{4}1^4[8:3]*^6[8:3],,,{8},
{4}5h[4:1],3h[4:1],1x,{8}78,{4}7h[4:1]/8,6p2[4:1],7,{8}8,{4}8,
12,45,78,{8}21,{4}2h[4:1]/1,3q7[4:1],2,{8}1,{4}1,
12,23,3/4<8[2:1],{8},1,{4}1,3,7/5>1[2:1]b,7,6,6,
1x/5x,{8}3,4,25,,6,5,{4}4/7^2[4:1],2^5[4:1],5^8[4:1],8,
1h[4:1],{8}8,{4}2-5[8:1]/7-4[8:1],27,36,{8}18,18,27,45,
6,7^4[8:1]b,8,7b/1,,8^5[8:1],1,8b/2,,1-6>2-7[2:1]b,2,{4}1b/3h[2:1],,A7f/D8/E8,
{8}1x,2x/8x,3x/7x,5,62,4,38,27,16,25,3/4-8[8:1],2^5[8:1],4,2,8bx,,
6^1[8:1]b,5,6b/4,,5^8[8:1],4,5b/3,,4-7>3-6[2:1]b,3,{4}4b/2h[2:1],,A6f/D6/E6,
{8}4x,3x/5x,{4}2-4[8:1]/6-4[8:1],2-8[8:1]/6-8[8:1],26,{8}5,3/7x,8-4[8:1],2-6[8:1],8,2,1b,,
18,27,36,{16}2,1,3,,45,,56,,7,8,6,,{8}45,3^8[8:1],8^5[8:1],3,6,4b-8[8:1]b,,
43,2,17,{16}6,5,7,,81,,12,,3,4,2,,18,,27,,3,5,4,6,3,5,{8}2b/6b,,
47,38,{4}2/1-4[8:1],1/8-5[8:1],8/7<2[16:3],{8}1,1h[4:1],,3x,5V31[32:5]b,7h[8:3],5b,,
8x,8x,{4}6/2^5[8:1],5-1[8:1],7,{8}28,46,,27,4^1[8:1]/5^8[8:1],36,4b/5b,,
1x/8x,27,{4}3-5[8:1]/6,3/7-1[8:1],7/2-6[8:1],{8}25,5h[4:1],,8,2-7[8:1]/6-3[8:1],48,{4}26,1b/5b,
{16}37,,6^3[8:1],5,7,,{8}1x,,12,38,47,56,{16}3^6[8:1],4,2,,{8}8x,,17,{16}3,5,3,5,
{8}4,5-1[8:1]/6,7,{4}5b/8b-4[8:1],2b^5[8:1]/8b^5[8:1],2b/8b,
{16}2,8,3,7,{8}4,56,3b/4b<8[8:1],1b/2b,{1}3b/4b,,,,E
- 追加しました。修正等ありましたらよろしくお願いします。 -- けもがみ (2025-01-16 03:12:13)
- MASTER譜面を追加しました。修正等ありましたらよろしくお願いします。 -- けもがみ (2026-02-19 06:15:47)
最終更新:2026年02月24日 10:51