アットウィキロゴ

snooze(創作譜面:ポム)

曲名 snooze
制作者名 wotaku
音源 ---
譜面動画
制作者コメント ---
BPM EASY BASIC ADVANCED EXPERT MASTER
--- - - - - -

EASY


BASIC


ADVANCED


EXPERT


MASTER

(150){4},
{4}3bh[1:1]/6b,,,,6h[1:1],E6,E5,E4,
3xqq5[8:7],,,,6h[2:1],E4/A4,3h[2:1],E6/A5,
6,5/A7/B7/E8,6,5/A7/B7/E8,3,4/A2/B2/E2,3,4/A2/B2/E2,
{8}6,5/A7/B7/E7,3,4/A2/B2/E3,{16}5,4,6,3,7,2,8,1,
{1}Cf,

{16}C,,,C,,,C,,{8}2,3,7,6,
{16}5/3h[16:3],,,4h[16:3],,,5,,{8}4/6h[8:1],1,5/3h[8:1],8,
{16}4/6h[16:3],,,5h[16:3],,,4,,{8}5/3h[8:1],8,4/6h[8:1],1,
{16}5/3h[16:3],,,4h[16:3],,,5,,{8}4/6h[8:1],1,5/3h[8:1],8,
{16}4/6h[16:3],,,5h[16:3],,,4,,{4}3h[4:1]/5-8[8:1],5x,

{16}3h[8:1],,5,4h[8:1],,6,5h[8:1],,{8}6h[8:1],5h[8:1],4h[8:1],3h[8:1],
{16}6h[8:1],,4,5h[8:1],,3,4h[8:1],,{8}3h[8:1],4h[8:1],5h[8:1],7h[8:1],
{16}5h[8:1],,6,4h[8:1],,5,3h[8:1],,{8}7h[8:1],5h[8:1],4h[8:1],2h[8:1],
{16}4h[8:1],,3,5h[8:1],,4,6h[8:3],,{4}2-6[8:1],2b,

{16}7h[8:1],,4,6,3,5,2,6, 1,7,2,8,4,6,3,5,
{32}2x,3x,4x,,{16}6,{32}2x,3x,4x,,{16}7,
3,6,{32}2x,3x,4x,,{16}8x-4-8[8:1],4x,,,,,
E3/B2/B3,,,E7/B6/B7,,,E5/B4/B5,,{8}7,6,2,3,
{16}8,1,8,1,8,1,8,1, 8-4[8:1],1,8,1,,,,,


{32}2/6h[8:1],E3,B3,B4, ,,,,{32}7/3h[8:1],E7,B6,B5, ,,,,
{32}2/6h[8:1],E3,B3,,{16},6,5,,{8}4/7h[8:2],
,3,5/2h[8:3],, ,6,47,6,
3,4,25,3, 6,5,74,6>3[8:1]/3h[4:1],
,6,2z6[8:3],7s3[8:3], 2,7,,,

{16}5x,4x,5x,4x,5x,4x,5x,4x, 5x,4x,5x,4x,5xpp1[8:3],4x,5x,4x,
{8}5x,,8xh[8:3],, ,1,27,3,
6,5,74,6, 3,4,25,3<6[8:1]/6h[4:1],
,3,7s3[8:3],2z6[8:3], 7,2,,,

{4}4h[4:2],,5w1[8:1],C,
{8}37,,,46,3h[8:2]/7-5[16:1],,7,{16}3,4,
1-3[16:1],,5,5,1-5[8:1],6,,6,
1-3[16:1],,4,,1,,5,4,
7-5[16:1],,3,3,7-3[8:1],2,,2,
7<4[8:1],,4h[16:4],,7,3x,2x,1x,

,,2xb,4xb,3xb,,6xb,5xb, 7xb,,2xb,4xb,,6xb,5xb,,
8-4-8[4:1]/4h[4:1],,,,8,,,,1,,,,35,,6,5,
7-5[16:1],,4,4,7-3[8:1],2,,2,
7-5[16:1],,4h[16:2],,7,,2,4,
{24}1-3[16:1],B1,C,{16}B5/6,, 1-5[8:1],,4,4,
1-3[16:1],6x,7x,8x, 1pp5[1:1],,{32}8x,B8,C,B4,


{1}A4/1b,,,
{4}6h[4:2],B4,3h[4:2],B5,

{8}6h[16:5],5h[16:3],,, 5h[16:3]/4h[16:3],,,{16}3,4,
{8},3h[16:3]/4h[16:3],,, 4h[16:3]/5h[16:3],,,{16}6,5,
{8},6h[16:3]/5h[16:3],,, 5h[16:3]/4h[16:3],,,{16}3,4>5[16:9],

{4},,,C,


{2}3b/6b, {16}7b/4h[8:1],,,6b/3h[8:1],,,5b/2h[4:1],,
{8},3h[8:1],4h[8:1],5h[8:1], {16}6>3[8:1],5,,5,6,,,,
{4}Ch[4:1],1-7-2-6-3-5[2:1],6xh[8:1],7xh[8:1],
{8}8-4[8:1],8,5s1[8:2],, {4}6h[4:3],,
2h[4:3],,{16}E4,E3,E2,E1,E8,E7,E6/Ch[16:4],,
,,8,1,,7h[16:3]/2,,, 6h[16:3],,,5h[16:3],,,4h[16:8],,
3x,,,3xh[16:9],,, ,, {8}2h[8:4],, ,7h[8:4],
,1x,1xh[8:4],, 8-4[8:1],,8b,,

{16}2h[8:1],,6,5,7h[8:1],,3,4, 2h[8:1],,5,3h[8:1],,6,4h[8:1],,
8h[8:1],,6h[8:1],,4h[8:1],,2h[8:1],, 1-5[8:1],2,,8,{12}1x,8x,8x,
{16}1h[8:1],,3h[8:1],,5h[8:1],,7h[8:1],, 8<5[8:1],,{24}1,2,3,{16}4/8x,,3,4,
,25,,6,5,,47,, 3,,26,,5,4,5h[32:1],4h[32:1],

,,54,,3,4,3,4, 3h[16:3],,,7,,,5/6h[16:3],,
,2,,,4/3h[16:3],,,8, ,,5/6h[16:3],,,1,,,
{8}2,46,7,53, 26,45,37,46,
{16}2,6,4,5,3,7,4,6,{24}2,5,3,7,4,6,2,5,3,7,4,6,


{4}1xw5[8:1],1b,
{16}5xh[8:1]/6xh[8:1],,,1h[8:1]/8h[8:1],,,3/4-8-6[4:1],,
,,1,,5,,,,
3/5h[8:1],,2>5[8:1],4,1,,28,,
7,,6,,2/5h[8:1],,3,,
7<4[8:1]/4h[8:1],,8,5,7,,3-1-4-8[8:3],,
,,3,,5,,6,,
7h[8:1],,,4h[8:1]/5h[8:1],,,12,,

{4}8xw4[8:1],8b,
{16}4xh[8:1]/3xh[8:1],,,8h[8:1]/1h[8:1],,,6/5-1-3[4:1],,
,,8,,4,,,,
6/4h[8:1],,7<4[8:1],5,8,,71,,
2,,3,,7/4h[8:1],,6,,
2>5[8:1]/5h[8:1],,1,4,2,,6-8-5-1[8:3],,
,,6,,4,,3,,
2h[8:1],,,5h[8:1]/4h[8:1],,,87,,


{8},2b/6b,2b/6b,2b/6b, 3b-8[8:1]b/7b-4[8:1]b,,B2/E3/B6/E7,,
{8}1b/5b,,,46,3h[8:2]/7-5[16:1],,7,{16}3,4,
2-4[16:1],,5,5,2-6[16:1],6,,6,
2-4[16:1],,5,5,2,,6,5,
8-4[8:1],,3,3,8-6[16:1],1,,1,
8x-4[8:1],,,8x-6[16:1],,,8x,,

,,3b,4b,2b,,7b,5b, 6b,,3b,4b,,7b,5b,,
8-4-8[4:1]/4h[4:1],,,,8,,,,1h[8:1],,,3h[8:1]/4h[8:1],,,65,,
7-5[16:1],,4,4,7-3[8:1],2,,2,
7-5[16:1],,4,4,7,,2,4,
1-5[8:1],,6,6,1-3[16:1],8,,8,
1x-5[8:1],,,1x,,,{32}1x,B1,C,B5,


{4}A5/6xp4[2:1],,,C,

{16}
5b/4b-7[8:1],,,,4x/3,,2,3, 5/4-7[8:1],,3,,4x/2,,,,
5/4-7[8:1],,,,4x/2,,3,, 5/4-7[8:1],,3,,4x/2,,3,,
4/5-2[8:1],,,,5x/6,,7,6, 4/5-2[8:1],,6,,5x/7,,,,
4/5-2[8:1],,,,5x/7,,6,, 4/5-2[8:1],,6,,5x/7,,6,,

5b/4b-8[8:1],,,,4x/3,,2,3, 5/4-8[8:1],,3,,4x/2,,,,
5/4-8[8:1],,,,4x/2,,3,, 5/4-8[8:1],,3,,4x/2,,3,,
4/5-1[8:1],,,,5x/6,,7,6, 4/5-1[8:1],,6,,5x/7,,,,
4/5-1[8:1],,,,5x/6,,7,, 6h[4:1]/2-6[8:1],,,,2b,,,,


{12}7bh[4:1],,,1h[12:1],5h[12:1],3h[12:1], 1>4[8:1],5<8[8:1],7,1,5,,
,,,8h[12:1],4h[12:1],6h[12:1], 8<5[8:1],4>1[8:1],2,8,4,,
{16}7,7,5,6,2,2,4,3, 6,4,7,3,8,2,7,3,
6,6,4,5,3,6,2,7, 1-5[8:1],8-4[8:1],1,8,1,8,,,

{12}2bh[4:1],,,8h[12:1],4h[12:1],6h[12:1], 8<5[8:1],4>1[8:1],2,8,4,,
,,,1h[12:1],5h[12:1],3h[12:1], 1>4[8:1],5<8[8:1],7,1,5,,
{16}2,2,1,3,6,6,5,7, 2,2,1,3,8,4,7,7,
8,6,1,5,2,6,3,8, 2,7,1-5[8:1],1,8-4[8:1],2,1xb,,
{1}8xb,


E

名前:
コメント:

タグ:

+ タグ編集
  • タグ:
最終更新:2025年02月03日 22:24