アットウィキロゴ

R'N'R Monsta

アーティスト Lite Show Magic

BPM BASIC ADVANCED EXPERT MASTER Re:MASTER
220 5 8 12 14 -

EXPERT MASTER Re:MASTER
譜面制作者 サファ太 メロンポップ vs Luxizhel -

BASIC


ADVANCED


EXPERT


MASTER

(220)
{4}2h[2:1]/4h[2:1],,,{8},3h[8:5],{4},4,4,5,4h[2:1]/6h[2:1],,,{8},7h[8:5],{4},5,5,46,
3/5h[2:1],,4,{8},2h[8:5]/4,{4},3,3,24, 3h[4:1]/5h[4:1],,46,{8},8bw4[8:3],{1},
{4}26,3-5[8:1],{8}6,6,,7h[8:3],,5,5,,6,6,5,5,{4}7^5[4:1],5^3[4:1],3,,2^4[4:1],4^6[4:1],6,,
57,6-4[8:1],{8}3,3,,2h[8:3],,4,4,,3,3,4,4,{4}2-4[4:1],4v6[4:1],6,,7-5[4:1],5v3[4:1],3,,
1,24,{8}3,3h[4:1],,5,,46,46,,7,7,5,5,{4}6^4[4:1],4qq2[4:1],2,,3^5[4:1],5pp7[4:1],7,,
{8}6,6,4,4,5,5,3,3,7,7,1,1,8,8,2,2,{16}28,3,4,5,6,7,8,1,2,3,4,5,6,7,8,1,
{2}2x-5[8:1]/6x-1[8:1],7x-4[8:1]/3x-8[8:1],2bh[4:1]/6bh[4:1],
{16}2b,6,2,6,2,6,2,6,3,7,3,7,3,7,3,7,{2}4-8[8:1],

{8}7,1,26,5,43,2,15,6,7,4,38,2,1,8,73,,
6,4,37,8,12,3,48,7,6,1,25,3,4,3,{4}2/5<2[4:3],
3,3,3,3,3x-5[8:1],2x-6[8:1],1x-5[8:1]b,1x,
{8}7-4[8:1],8,7,1,2-5[8:1],1,2,8,6-1[8:1],5,6,4,4-8[8:1],5,4,,
7-3[8:1],8,7,1,2-5[8:1],4,2,6,7-4[8:1],8,7,1,1q5[8:1],5,1,,
6x,5x,B7/E8,,3x,4x,B2/E2,,6,5,B8/A8,,3,4,B1/A1,,7,7,5,5,4,4,2,2,{4}12,78,B3/C/B6,,

7pp3[8:5],{8}5,{4}5,4,5V36-2[2:1],1,8,{8}1,1,,7qq3[8:5],,2,{4}2,1,8-4V62[8:5],4h[8:5],,,{8},
1qq6[8:5],,5,{4}5,4,5V73-8[8:5],{8}4,4,4h[4:1],{2},{4}4^1[4:1],1^6[4:1],6^3[4:1],3s7s3[4:3],{1},
{8}6qq3[8:5],,1,{4}1,8,1-6-2-4[8:5],{8}4,4,4,,8,8,,6pp1[8:5],,1,{4}1,2,{1}3xq6[8:5],{8},
56,56,7,,34,34,2,,78,78,6,,12,12,3,,56,56,47,47,38,38,12,12,38,{16}7,5,{8}6,4-1[8:1],{2}4-7[8:1],

{1}2h[1:2]/6b,{2}3,3,{1}4h[1:2],{2}5,5,{1}5h[1:2],{2}6,6,{1}7h[2:3],{4}5,5-2-4[8:3],{2},
{8}6,,47,,6,6,4,5,3,,24,,5,5,46,,7,,56,,3,3q5[8:5],4,3,{4},,,6,
56,47,{8}6,4,5,3,,24,,35,35,,46,,6^3[8:1],,1,1,2^7[8:1],,5,5,6^3[8:1],,2,,1,1,25,,

{4}4/6<3[4:3],4,5,5,4,4,56,4,5/3>6[4:3],5,4,4,5,5,43,27,
{8}5,5,5,5,7,7,7,7,1,1,1,1,3,3,34,,{16}34,5,6,7,81,2,3,4,56,7,8,1,2,3,4,5,
{4}6/2h[4:1],4h[4:1],6h[4:1],8bz4[4:3],{1},{4}2bx/4b,5bx/7b,1bx-4[8:1]/8bx-5[8:1],1b/8b,

{8}6-1[8:1]b,2-6[8:1],6,2,8,{16}7,5,{8}7,38,2-6[8:1]b,1-5[8:1],2,1,{4}4x-1[8:1]*v7[8:1],4b,
{8}8p4[8:1],2-5[8:1]b,8,2,6,{16}7,8,{8}7,16,2-5V31[4:1]b,8-4[8:1]b,2,8,{4},2b/6b,
{8}8,8,73,3,62,6,51,1,{4}4/8-3[8:1],4-8[8:1]b,2-5[8:1]*-6[8:1],2b,
{8}7-3[8:1],1-5[8:1]b,7,1,8,{16}6x,5x,{8}6x,47,8-3[8:1],5-2[8:1],8,5,{4}1^4[8:1]*v6[8:1]b,1b,
{8}8p4[8:1],3-1[8:1],8,3,6-2[8:1],3-5[8:1],6,3,1,1,84,84,73,62,5/1-5[8:1]b,,
1-3[8:1]b,6,1-7[8:1]b,6,1^3[8:1]b,5,1q5[8:1]b,5,1-3[8:1]b,7-4V68[4:1]b,1-5[8:1]b,7,{4}1b,3b,
{8}26,26,15,15,{32}8,7,6,5,4,3,2,1,8,7,6,5,4,3,2,1,
{4}4/8-3[8:1],8/6-1[8:1]b,6/5-2[8:1],5/8w4[8:1]b,

{16}8<1p7[4:11]b,Cf,,,{4},,,{1},,{2},B1/B8/E1,
{4}35,2,1/B5/E5/E6,3,64,7,8/B3/B4/E4,8V27-3-6-4[1:1],{1},
{2}3-1[8:1]*-7[8:1],2v5[8:1]/6-1[8:1],3bh[4:1]/7bh[4:1],
{16}7b,3,7,3,7,3,7,3,6,2,6,2,6-3-5[16:5],2,6,2,{2}6b,

{8}2qq7[8:5],,4,{4}4,5,6-3[8:1],6/2-7[8:1],2/6V83[4:1],{8}4,4,,
2qq6[8:5],,6,6,,5,,4-7^5p8[8:5],{4},,,3bx,
{8}12,12,38,,87,87,61,,43,43,25,,56,56,74,,
{16}2x,1,3,8,4x,7,5,6,8x,7,1,6,2x-6[8:1]b,5,3,4,2b,{1}Cf,,,,E

Re:MASTER


  • 追加しました。修正等ありましたらよろしくお願いします。 -- けもがみ (2025-02-20 06:58:27)
名前:
コメント:

タグ:

+ タグ編集
  • タグ:
最終更新:2026年04月11日 19:02