アットウィキロゴ

[片]神々が恋した幻想郷

BPM 属性 COMMENT
155 片 神々が恋したトリル郷

属性:片

(155)
{2}7h[1:2],{8}3,4,3,4,3,4,3,4,{2}3,2h[1:2],{8}6,5,6,5,6,5,6,5,{2}6,
{8}7h[1:1],,3,4,3,4,3,,2h[1:1],,6,5,6,5,6,,7h[1:1],,3,4,3,4,3,,{1}1b,

{8}7h[4:7]/3,3,3,3,{16}3,4,3,4,{8}3,3,
3,3,3,3,{16}3,4,3,4,{8}3,2,
2h[4:7]/6,6,6,6,{16}6,5,6,5,{8}6,6,
6,6,6,6,{16}6,5,6,5,{8}6,7,
7h[4:7]/3,3,3,3,{16}3,4,3,4,{8}3,3,
3,3,3,3,{16}3,4,3,4,{8}3,2,
{16}2h[4:7]/6x,5,6,5,{8}6,6x,6,6,{16}6x,5,6,5,{8}6,6x,6,6,{16}6x,5,6,5,
{8}6,1,{4}1pp5[2:1],Cf,,8bh[4:15],

{8}3,3,{16}3,4,3,4,3,4,3,4,{8}3,3,
3,3,{16}3,4,3,4,3,4,3,4,{8}3,3,
3,3,{16}3,4,3,4,3,4,3,4,{8}3,3,
3,3,{16}3,4,3,4,{8}3,2,1h[4:15],,
6,6,{16}6,5,6,5,6,5,6,5,{8}6,6,
6,6,{16}6,5,6,5,6,5,6,5,{8}6,6,
6,6,{16}6,5,6,5,6,5,6,5,{8}6,6,
6,6,{16}6,5,6,5,{2}6b,

{2}2/8^5[4:1],4h[4:5],{4}6,7,{16}7,6,7,6,{4}7,
{2}7/1^4[4:1],5h[4:5],{4}3,2,{16}2,3,2,3,{4}2,
{2}2/8^5[4:1],4h[4:5],{4}6,7,{16}7,6,7,6,{4}7,
{2}7/1^4[4:1],5h[4:5],{4}3,2,{16}2,3,2,3,{4}2,

{16}2h[4:3]/6,5,6,5,6,5,6,5,6,5,6,5,{8}6,6,
{16}1h[4:3]/6,5,6,5,6,5,6,5,6,5,6,5,{8}6,6,
{16}8h[4:3]/6,5,6,5,6,5,6,5,6,5,6,5,{8}6,6,
{16}1-4[2:1]/6,5,6,5,6,5,6,5,6,5,6,5,{4}6,
{16}7h[4:3]/3,4,3,4,3,4,3,4,3,4,3,4,{8}3,3,
{16}8h[4:3]/3,4,3,4,3,4,3,4,3,4,3,4,{8}3,3,
{16}1h[4:3]/3,4,3,4,3,4,3,4,3,4,3,4,{8}3,3,
{16}8-5[2:1]/3,4,3,4,3,4,3,4,3,4,3,4,{4}3,

{16}5h[4:1]/3,4,3,4,3,4,3,4,
7h[4:1]/3,4,3,4,3,4,3,4,
8h[4:1]/3,4,3,4,3,4,3,4,
7h[4:1]/3,4,3,4,{8}3,3,
{16}4h[4:1]/6,5,6,5,6,5,6,5,
2h[4:1]/6,5,6,5,6,5,6,5,
1h[4:1]/6,5,6,5,6,5,6,5,
2h[4:1]/6,5,6,5,{8}6,6,
{16}5h[4:1]/3,4,3,4,3,4,3,4,
7h[4:1]/3,4,3,4,3,4,3,4,
8h[4:1]/3,4,3,4,3,4,3,4,
7h[4:1]/3,4,3,4,{8}3,3,
{16}4h[4:1]/6,5,6,5,6,5,6,5,
2h[4:1]/6,5,6,5,6,5,6,5,
1h[4:1]/6,5,6,5,6,5,6,5,
2h[4:1]/6,5,6,5,{8}6,6,

{2}7/1^4[4:1],8h[4:5],{4}5,4,{16}4,5,4,5,{4}4,
{2}2/8^5[4:1],1h[4:5],{4}4,5,{16}5,4,5,4,{4}5,
{2}7/1^4[4:1],8h[4:5],{4}5,4,{16}4,5,4,5,{4}4,
{2}2/8^5[4:1],1h[4:5],{4}4,5,{16}5,4,5,4,{4}5,
{2}1^4[8:1]/8^5[8:1],2x/7x,

{16}8h[4:1]/3,4,3,4,3,4,73,4,
73,4,63,4,53,4,63,4,
7h[2:1]/3,4,3,4,3,4,3,4,
3,4,63,4,73,4,83,4,
8h[4:1]/3,4,3,4,3,4,73,4,
73,4,63,4,73,4,83,4,
1h[2:1]/3,4,3,4,3,4,3,4,
3,4,83,4,83,4,73,4,
7h[2:1]/3,4,3,4,3,4,3,4,
3,4,83,4,83,4,13,4,
1h[2:1]/3,4,3,4,3,4,3,4,
3,4,3,4,83,4,73,4,
7h[2:1]/3,4,3,4,3,4,3,4,
3,4,83,4,73,4,63,4,
5h[4:3]/3,4,3,4,3,4,3,4,
{8}3,3,2,2,
{16}1h[4:1]/6,5,6,5,6,5,26,5,
26,5,36,5,46,5,36,5,
2h[2:1]/6,5,6,5,6,5,6,5,
6,5,6,5,36,5,26,5,
1h[4:1]/6,5,6,5,6,5,26,5,
26,5,36,5,26,5,16,5,
8h[2:1]/6,5,6,5,6,5,6,5,
6,5,16,5,16,5,26,5,
2h[2:1]/6,5,6,5,6,5,6,5,
6,5,16,5,16,5,86,5,
8h[2:1]/6,5,6,5,6,5,6,5,
6,5,6,5,16,5,6,5,
1h[4:1]/6,5,6,5,6,5,6,5,
2h[4:1]/6,5,6,5,6,5,6,5,
4h[2:1]/6,5,6,5,6,5,6,5,
{2}6,1b,{4}8b,8x-6[8:1],

{16}8-2[8:1]/3,4,3,4,8^6[8:1]/3,4,3,4,
8^2[8:1]/3,4,3,4,8-6[8:1]/3,4,3,4,
8-2[8:1]/3,4,3,4,8^6[8:1]/3,4,3,4,
8^2[8:1]/3,4,3,4,8-6[8:1]/3,4,3,4,
8-2[8:1]/3,4,3,4,8^6[8:1]/3,4,3,4,
8^2[8:1]/3,4,3,4,8^6[8:1]/3,4,3,4,
8^2[8:1]/3,4,3,4,8-4[8:1]/3,4,3,4,
{8}83,2,{4}1x-3[8:1],
{16}1-7[8:1]/6,5,6,5,1^3[8:1]/6,5,6,5,
1^7[8:1]/6,5,6,5,1-3[8:1]/6,5,6,5,
1-7[8:1]/6,5,6,5,1^3[8:1]/6,5,6,5,
1^7[8:1]/6,5,6,5,1-3[8:1]/6,5,6,5,
1-7[8:1]/6,5,6,5,1^3[8:1]/6,5,6,5,
1^7[8:1]/6,5,6,5,1^3[8:1]/6,5,6,5,
1^7[8:1]/6,5,6,5,1-5[8:1]/6,5,6,5,
{4}16,36,

{16}3b/6b,27,3b/6b,27,3b/6b,27,3b/6b,27,
3b/6b,2b/7b,3b/6b,2b/7b,3b/6b,2b/7b,3b/6b,2b/7b,
{4}3bqq5[4:35]/6bpp4[4:35],{1}3b/6b,,,,,,,,E

  • 追加しました。修正等ありましたらよろしくお願いします。 -- けもがみ (2025-02-28 09:03:52)
名前:
コメント:

タグ:

+ タグ編集
  • タグ:
最終更新:2025年02月28日 09:19