アットウィキロゴ

雨露霜雪

アーティスト かねこちはる vs t+pazolite

BPM BASIC ADVANCED EXPERT MASTER Re:MASTER
250 6 9 13 14+ -

EXPERT MASTER Re:MASTER
譜面制作者 はっぴー サファ太 vs Luxizhel -

BASIC


ADVANCED


EXPERT

(250)

{1},,A2/A3/A6/A7/B2/B3/B6/B7/Cf/D3/D7/E3/E7,,,,{4}1/8,

{1}2bh[4:11]/7bh[4:11],,,{4},,,{4}6,6,5,5,4,4,3,3,4,4,5,5,4/6,4/6,3/7,3/7,{8}2,2,8,8,1,1,7,7,2,2,8,8,1,1,7,,1x/8x,1x/8x,1x/8x,1x/8x,1x/8x,1x/8x,1x>4[4:1]/8x<5[4:1],,{4},,,4b/5b,

7h[4:1],{8}5,5h[4:1],,4,{4}4,3h[4:1],{8}4,4h[4:1],,5,{4}5,7,6/8,2,1/3,2h[4:1],4,7h[4:1],5,2h[4:1],{8}4,4h[4:1],,5,{4}5,7h[4:1],{8}5,5h[4:1],,4,{4}4,2-5[8:1],,6-1[8:1],,{8}3,3,8,8,{4}5,4/6,
3h[4:1],{8}1,1h[4:1],,8,{4}8,6h[4:1],{8}8,8h[4:1],,1,{4}1,3,2/4,6,5/7,8,{8}1,8b,,3/5,3/5,,6,6,4,4,7,7,1>8[1:1],1,{1}5b,cf

,,,{2}6h[1:2],,{4}E8,E7,E6,,4,,3h[2:3],,E2,E3,E4,,{2}5,5,{4}4/6,4/6,4/6,4/6,4/6,4/6,4/6,{8}4/6,3,{4}2/5,2/5,2/5,2/5,2/5,2/5,2/5,{8}2/5,6,1h[8:1]/7h[8:1],,1bx/7bx,,8,8,8,8,5,5,5,5,4,4,4,4,{16}1,2,3,4,5,6,7,8,1,2,3,4,5,6,7,8,{4}1h[4:3],,,8b,

{4}1/7,1/7,2/3,4/6,2/8,2/8,6/7,3/5,1/7,1/7,2/4,5/6,2/8,2/8,5/7,3/4,2/5,2/5,5/6,8b,4/7,4/7,3/4,5b,1V35[8:1],,8V64[8:1],,1,{8}2/4,2/4,,5/7,{4}5/7,2-4[8:1],8-6[8:1],1-5[8:1],{8}8,8,4,4,{4}6,3/7,4/6,7-5[8:1],1-3[8:1],8-4[8:1],{8}1,1,5,5,{4}3,2/6,8b,{8}7,7,1,1,{4}6,3/5,{8}2,2,4,4,3,3,5,5,{1}4q5<3[4:11],,,{4},,1/8,,

{8}2,2,8,{4}4,5/7,6/8,{8}3,3,5,2,4,1h[4:1],,7,7,3,{4}5,2/4,1/3,{8}6,6,4,7,5,8h[4:1],,2,2,6,{4}5,2/8,1/7,{8}2,2,8,3,1,4h[4:1],,7,{4}7h[4:1],5h[4:1],3h[4:1],1h[4:1],8h[4:1],6h[4:1],{8}4,4,,

3,3,5,1,7,7,5,1,3,3,5,2,6,1,7,8,6,6,4,8,2,2,4,8,6,6,4,7,3,8,2,1,{2}3>8[4:1],7<4[4:1],{4}3,2/4,1/8,5/7,{2}6<1[4:1],2>5[4:1],{4}6,5/7,1/8,2/4,

{6}3/5,3/5,3/5,{2}3/5,2h[2:1],{4}4,,{6},4/6,4/6,4/6,4/6,4/6,4/6,4/6,4/6,{2}4/6,{8}7,7h[8:3],,,5,5,,,2,2h[8:3],,,4,4,,,7,7,5,5,6,6,3,3,4,4,2,2,5,5,

{4}1-6<7-3>2-5[1:3],{1},,,8b,{8}1-5[8:1],,,7-3[8:1],,,5h[4:1],,8-4[8:1],,,2-6[8:1],,,4h[4:1],,{1}1bx>8[1:1],,
{4}8,8,8,8,5/7,5/7,5/7,5/7,4,4,4,4,3/5,3/5,3/5,3/5,2,2,2,2,1/8,1>4[4:1]/8<5[4:1],

{2},7,7,7h[1:1],{16}E2,E1,E8,E7,{4}E6,{2}2,2,2h[1:1],{16}E8,E1,E2,E3,{4}E4,{2}6,6,{4}6h[1:1],{16}E6,E5,E4,E3,E2,E1,E8,E7,{4}E6,{2}3,3,{4}3h[1:1],{16}E4,E5,E6,E7,E8,E1,E2,E3,{4}E4,7,7,4/6,4/6,2,2,3/5,3/5,6,6,1/7,1/7,3,3,2/8,2/8,{8}7,7,5,5,6,6,4,4,7,7,3,3,8,8,2,2,7,7,1,1,8,8,3,3,7,7,4,4,6,6,{1}5p4[2:1],{4},3b/6b,,

{8},2,2,4,3,,1/2,{4}1/2,7q4[4:1]/8>3[4:1],,,5/6,{8}7,7,5,6,,7/8,{4}7/8,1<6[4:1]/2p5[4:1],,,3/4,{8}2,2,4,3h[4:1],,5,5,{4}2-8[8:1],4b,6h[4:1],{8}4,4,{4}7-3[8:1],2b,1h[4:1],2h[4:1],3h[4:1],4,{8}2/5,2/5,3/4,,4/7,4/7,{4}5/6,

7b/8b,7b/8b,2b/3b,{8}6b,6b,4b,4b,{4}7b,2b/5b,3b/4b,1b/2b,1b/2b,6b/7b,{8}3b,3b,5b,5b,{4}1b,2b-8[8:1]/4b,5b,6h[4:1],{8}8,{4}8h[4:1],1h[4:1],3h[4:1],{8}5,5,{4}2h[4:1],{8}4,4,,3/5,3/5,3/5,3/5,3/5,3/5,3/5,,2/6,2/6,2/6,,{16}7,1,7,1,{4}7bx,

{6}6,5,4,{4}3-5[8:1],7-1[8:1],2-6[8:1],8<5[8:1],1>4[8:1],7,{8}8,8,1,1h[4:5],,4,4,4,,5,5,,4,4,{4}4,2h[4:1],4h[4:1],6h[4:1],8h[4:1],2bh[4:1],4bh[4:1],6bh[4:1],8bh[4:1],{8}2,2,4,3,3,5,4,4,7,7,5,5,4,4,2,2,1b,,1/7,1/7,1/7,1/7,1b/7b,,6/8,6/8,6/8,6/8,6/8,6/8,6b/8b,,1/7,1/7,1/7,1/7,1/7,1/7,1b/7b,,2/8,2/8,2/8,2/8,2/8,2/8,2b/8b,,1/3,1/3,1/3,1/3,1/3,1/3,1b/3b,,4,4,4,4,4,4,3b/5b,,{16}3,5,3,5,{4}3,{16}6,4,6,4,{4}6,3/7,2/6,{16}1,8,1,8,1,8,1,8,{1}1bxh[1:6],,4x-8[2:1],,4-8[2:1],,{4}5,6,7,8<1[1:1],{1}Ch[1:1],E

MASTER

(250)
{24}6bx-3-6[4:13]b`2bx-7-2[4:13],3x/7x,4x/8x,5x/1x,,,{4},,,{1},,,{16}2,8,2,8,
{1}2bh[4:7],{4},,,{8}4h[8:3],,,3h[8:3],,,5,,4/6h[8:3],,,5h[8:3],,,{4}7V51[4:5],
4bx,4,4,4,3,3,2,2v3-5[2:3]b,8,8,8,8,7,7,6,6,{8}4,4,5,5,3,3,5,5,2,2,6,6,1,1,2/8h[4:1],,
{16}2,3,4,5,6,7,8,1,2,3,4,5,6,7,8,1,{4}2/6h[4:3],,,C,

7^4[8:1],{8}1,2-8[8:1],,4,5,,7-1[8:1],,3,2^5[8:1],,8,8,,
6h[4:1],,5,4/7v4[8:1],,1,1,,2,3,4,5,6,5,4,3,
2^8[8:1]/5,,6,6h[4:1],,5,4-8[8:1],,7^4[8:1],,1,1,,28,28,,
2x/5x,{16}3,4,3,,6,,3,4,3,,7,,2,1,{8}2,8,{4}1/7V53-1[8:3],,,
{8}8b,,71,7/1h[4:1],,3,,5,46,3h[4:1]/7,,8-3[8:1],,2-5[8:1],,6,
6,,78,78,,12,,3V17[4:1]/4,,5,,6bh[4:1],,5,4/7^2[8:1],,
3,,4,4,{16}8,7,6,5,2,3,4,5,{1}Chf[1:1],

1>8-4[4:13],,{4},,,{16},,,A5,D6,A6,,,{4},,,
{2}3h[4:1],2h[4:1]/B4/B5,2h[4:1],3h[4:1]/B4/B5,
3/7h[4:1],6h[4:1]/B5/E5,6h[4:1],7h[4:1]/B4/B5/E5,
{4}2b/8bp4[4:3],2,2,2,3,3,3,{8}35,2,{4}1q5[4:3]/7,7,7,7,6,6,6,45,
{16}3,4,{8}3,2x/5x,,1,1,7,7,3,3,5,5,4,4,35,,{16}3x,5x,3x,5x,3x,5x,3x,5x,2x,6x,2x,6x-3[16:3],
{4}2x-7[8:1]b,,{8},15,{4}15,3/7-4[8:1],

2V86<1[2:1]/7bx,5,4,5-1[8:1],4/5V38[4:1],8,6-4[8:1],26,
3/7V13>8[2:1],4,5,4-8[8:1],4V61[4:1]/5,1,3-8[8:1],34,
6h[4:1],5-2[8:1],5/7-4[8:1],1b/7,2-6V41[8:3],5,8-4[8:1],8b,
{16}2,1,2,,7,8,7,,3,4,2,,6,5,7,,{4}1-5[8:1]/2-4[8:1],12,8,26,

1bx-5[8:1]b,7bx-3[8:1]b,4bx,{8}1bx,1bx,2bx/8bx,2bx/8bx,3bx/7bhx[4:1],,{16}5bx,,,4bx,{8}5bx,2bx,
2bx-8[8:1]b,,6bx-4[8:1]b,,3bx,,{16}2bx,1bx,2bx,1bx,
{8}2bx,3bx/8bx,{16}4bx/7bhx[16:3],,,5bx,{8}6bx,{16}1bx,8bx,{4}2bx-5[8:1]b/7bx-4[8:1],
2bx/7bx,{8}2x/8x,2,{16}7,6,5,4,7,6,5,4,{8}8b,,17,7,{16}2,3,4,5,2,3,4,5,
{4}1b,{12}A2,E3,E4,A8,E8,E7,B1,C,B5,A7,A6,A5,A4,A3,A2,D7,D6,D5,D4,D3,D2,
{16}8,7,6,5,4,3,2,1,8,1,2,3,4,5,6,7,{2}8/Ch[2:1],D3/E3/D7/E7,

{8}8-3[8:1],,18,2-6[8:1],,4<8[4:1],,1,,,3,,12,,78,,
16,1-3[8:1]/6,,1-7[8:1],,1-5[8:1],,1,,,{4}7^4[4:1],4^1[4:1],1^6[4:1],
6pp5[8:3],,,4h[4:1],2h[4:1],8h[4:1],6h[4:1],4,
{8}35,{4}3/5-7[8:1],5-3[8:1],5-1[8:1],5<3[8:3],5,5,6,{8}57,
8-4[8:1],8,3,3,7-5[8:1],7,1,,2-4[8:1],2,6,6,1-5[8:1],1,8,,
7-5[8:1],7,1,2,3-8[8:1],3,5,,7,7,5,6,{2}4-8[8:1]/7^4[8:1],
{4}15,{16}2h[4:1]/4,5,6,7,{4}8,{16}3h[4:1]/5,6,7,8,1,2,3,4,5,6,7,8,{4}15,24,
45,{16}7h[4:1]/5,4,3,2,{4}1,{16}6h[4:1]/4,3,2,1,8,7,6,5,4,3,2,1,5,6,7,8,1,2,3,4,

{1}1p7^2[4:11]/5p3^6[4:11],,,{4},,17,17,
{8}2/B5/B6,2,2,2,2/B7/B8,2,2,,6/A3/D4/A4,6,6,6,6/A1/D2/A2,6,6,,
4/B5/B6/E6,4,4,4,4/B7/B8/E8,4,4,,1h[16:1],1h[16:1],1h[16:1],1h[16:1],
2h[16:1]/8h[16:1],2h[16:1]/8h[16:1],3h[16:1]/7h[16:1],3h[16:1]/7h[16:1],{1}Cf,

{4},,,{16},,3,4,{1}5h[32:33],4h,
{12}7b/4bx,3,2,1,8bx/5b,4,3,2,1,8,7,6,5bx/1b,2,3,4,5bx/8b,1,2,3,4,5,6,7,
{2}8bz4[2:1]/3b,4b^2-8v7-5[1:1],{1},

{4}5hx[4:7]/E4,E3,E2,E1,E8,E7,E6,E5,4hx[4:7]/E6,E7,E8,E1,E2,E3,E4,E5,
E4/E6,E3,E2/E5,E1,E8/C,E7,E6/E1,E5,
{4}2h[4:1]/5h[4:1],,3h[4:1]/4,{8}5,5,2h[4:1],4,{4}5,1h[4:1]/4,,
2h[4:1]/8hx[4:1],,3/7h[4:1],{8}4,4,6h[4:1],5,{4}4,2h[4:1]/5h[4:1],,
3hx[4:1]/4h[4:1],,2/4h[4:1],{8}3,3,4h[4:1],2,{4}1,2/4h[4:1],,
5h[4:1]/6hx[4:1],,5h[4:1]/7,{8}6,6,5h[4:1],7,{4}6,5h[4:1]/8,,
7b-3V51-5V37[2:3],3,2,1,2,3,2,1,2b-6V48-4V62[2:3],6,7,8,7,6,7,8-4[8:1]b,
1b,{8}2,2,4,4,5,5,7,7,1,1,8,8,2,2,
{12}6,4,5,3,5,4,6,4,5,3,5,4,{8}5h[16:1],5h[16:1],5h[16:1],5h[16:1],
4h[16:1]/6h[16:1],4h[16:1]/6h[16:1],4h[16:1]/6h[16:1],4h[16:1]/6h[16:1],
{16}3,5,3,5,3,5,3,5,2,6,2,6-3[16:3],{4}2-7[8:1]b,,,{8}17,17,2-5[8:1]/6,,

2b/7V13>8[2:1],,4,5,{4}6,4-8[8:1],4^6-1[4:1]/6,{8}1,2,{4}3-5[8:1],37,
2V86<1[2:1],{8}5,4,{4}3,5-1[8:1],3/5^3-8[4:1],{8}8,7,{4}6-1[8:1],56,
3h[4:1],{8}4-7[8:1],3,{4}2-5[8:1]/4,2/8b,7-3V58[8:3],{8}3,2,{4}1-5[8:1],1b,
{16}7,8,7,,2,1,2,,6,5,7,,3,4,2,,{8}7-5[8:1],8-4[8:1],7,8,{4}1,3x/7x,

8bx-4[8:1]b,8bx/2bx-6[8:1]b,2bx/5bx,{8}7bx/8bx,7bx/8bx,1bx/6bx,1bx/6bx,2bx/5bx,,{16}3bx/8bx,,,6bx,{8}5bx,4bx/7bx,
4bx/7bx-2[8:1]b,,7bx/3bx-6[8:1]b,,3bx/6bx,,{16}7bx,8bx,7bx,8bx,
{8}7bx,1bx/6bx,{16}2bhx[16:3]/5bx,,,4bx,{8}3bx,{16}8bx,1bx,{4}2bx-5[8:1]/7bx-4[8:1],
2bx/7x-1[8:1],3-7[8:1],3/5-1[8:1],5/2-6[8:1],2/6b,5/8-4[8:1],8/2b-6[8:1],25,
{8}7,7,5,5,3,3,2/8h[8:1],,{16}62,1,8,7,6,5,4,3,26,7,8,1,2,3,4,5,

{6}6b/2b,3h[6:1],5h[6:1],4h[6:1],6,37,{12}E4,E5,A5,E2,E3,A3,A7,E8,E1,A5,E6,E7,{8},
1,1,7,3,8,8,8,5,5,46,46,{4}3/7h[4:1],8b,{12}61,2,3,8,1,2,7,8,1,6,7,8,
{16}E3,B3,B4,E5,E7,B7,B8,E1,A3,A4,A5,A6,A7,A8,A1,A2,
{4}3hx[8:1],2h[8:1]/4h[8:1],6h[8:1],5h[8:1]/7h[8:1],
{12}4,5,3,4,2,3,{4}1^4[8:1]b*^6[8:1]b,,

2bx/8bx,{8}1-5[8:1],1,7-4[8:1],7,2-6[8:1],2,5-1[8:1],5,3-8[8:1],3,7,7,{16}1,2,3,4,
{8}6-1[8:1],6,5-2[8:1],5,{16}8,7,6,5,{4}4h[8:1]/1h[8:1],{16}2,4,2,4,2,,7,5,7,5,7,,1,8,1,,
{4}3b/7b-4[8:1],{16}4,3,2,1,8-3[8:1],,8,,4,5,6,7,8^5[8:1],,8,,5,4,3,2,{8}1-5[8:1],1,7b,,
4b/8b,48,37,37,2b/6b,26,15,15,{16}8b,4,8,4,8b,4,8,4,{32}8b,7,6,5,4b,3,2,1,{4}8bw4[8:1],

{1}8b<1[4:5]/A2/B2/E2/E3/A6/B6/E6/E7/Cf,,
{8}5bh[1:2],,2,2-5-2[2:1],,,,,{2},{32}E3,B3,{16},{8},{4},
{8}4h[1:2],,7,7-4-7[2:1],,,,,{2},{32}E7,B6,{16},{8},{4},
{8}5h[8:5],,3,{4}3,2<6V83-5[1:1]b,{1}Ch[1:1],,,,E

Re:MASTER


  • 追加しました。正確な情報が判明次第EXノーツ等を修正します。 -- けもがみ (2025-03-03 09:56:38)
  • EXノーツを修正しました。 -- けもがみ (2025-03-05 04:07:19)
  • 追加しました。 -- シアミラ(2026/01/08 18:15:09)
名前:
コメント:

タグ:

+ タグ編集
  • タグ:
最終更新:2026年06月09日 02:06