アットウィキロゴ

宙天

アーティスト t+pazolite vs かねこちはる

BPM BASIC ADVANCED EXPERT MASTER Re:MASTER
125 6 8+ 13 14+ -

EXPERT MASTER Re:MASTER
譜面制作者 Jack BELiZHEL vs Safari -

BASIC


ADVANCED


EXPERT

(125){8}4,,,,4,,,,4,,,,4,,,,5h[4:8],,,,,,E6,E5,E4,,,,E5,,,,3h[4:8],,,,,,D4,D5,D6,,,,C,,,,7h[4:7],,,,,,A6,D5,A3,,,,2h[4:1],,,,Chf[4:4]/E5f/B6/B5/B4/B3,,,,,,,,{32}1x,2x,3x,4x,5x,6x,7x,8x,1x,2x,3x,4x,5x,6x,7x,8x,1x,2x,3x,4x,5x,6x,7x,8x,1x,2x,3x,4x,5x,6x,7x,8x,

{8}1b,,2hx[4:2],,4,5,6h[4:1],,5v8[16:3],,7<4[16:3],,1,2,3h[4:1],,4v1[16:3],,2>5[16:3],,8,7,6h[4:1],,5-1[16:3],,8,,E2,E7/B6,B4/E4/A4,A8/E1/E8/B8,2,2,3/5,6,5/7-4[16:3],8,,,2/3,4,5/6z2[4:1],7,,,1x,,7,7,6/4,3,4/2-5[16:3],1,,,7/6,5,4/3pp3[4:1],2,7pp7[4:1],,,,

4bh[4:4],,,,,,,,{16}6h[4:2],,,{32}8,1,{16}2h[4:3],,,,,,,{32}4,5,{8}6qq3[8:7],,,,,,,,,,,,,1,1h[4:1],,8,2/7,{64}1b/8b,2x/7x,3x/6x,4x/5x,,,,,{8},,,4,4,5,5,3/4,2,6/5,7,3/4,1,6/5,8,{16}3,3,4,4,2,2,8,8,1,1,7,7,5,5,6,6,4,3,2,1,8,7,6,5,{16}4bxw8[16:1],,,,,,,,2x/6x,2/6,,7/8x,,2x/4,2/4,,7x/3x,7/3,,2/1x,,6,6x,5,7x,7,,3x/4,,8/2,8x/2,,7x/1x,7/1,,6x/5,,2,2x,4,3x,3,,5x/7,,1/8,1x/8x,,6x,6,,4x/2,,1/8,1x/8x,,{32}2b,3x,4x,,7b,6x,5x,,1b>8[4:1],2x,3x,,8b,7x,6x,,{8},,,,1/2,3,1/2,8,{16}7h[16:3],,,6h[16:3],,,5,,2h[16:3],,,3h[16:3],,,4,,{8}8<5[8:1],4>1[8:1],,,7h[4:1],,{16}8,,2,1,2,,7,5,,5,4,,4,2,,2,4q5[8:3],,4,,,,,,,,,,{8}8/7,6,8/7,1,{16}2h[16:3],,,3h[16:3],,,4,,7h[16:3],,,6h[16:3],,,5,,2-6[8:1],,6,,,,,,7,8,7,2,1,2,6,5,6,3,4,3,8,8,2,2,6,6,5,7,3,3,4,2,7,7,8,6,2,2,1,3,{4}8bh[1:1]/4bh[1:1],,,,,,E1,,

(130){8}2h[132.5#1:2],,,,,,A3,E5,(135)A6,,,,C,,,,(140)6h[142.125#4:7],,,,,,E6,E5,(145)E4,,,,3h[4:1],,,,(150)4b>3p2<1p4[4:6]/5b<6q7>8q5[4:6],,,,,,,,(155),,,,,,,,(160){8}3h[4:1],,4h[4:1],,5h[4:1],,6,6-4[8:1],(165),2h[4:1],,3h[4:1],,4,4,,(170)6h[4:1],,5h[4:1],,4h[4:1],,3,3-5[8:1],(175),7h[4:1],,6h[4:1],,5,5,,(180)2h[4:1],,3h[4:1],,4h[4:1],,5,4/6,(185),7h[4:1],,5h[4:1],,4,3/5,,(190){16}2,,2,,7,,7,,1,8,1,8,1,8,1,8,{4}1bx>4[8:1],8bx<5[8:1],2bx-6[8:1],8bx,(95)3bh[8:1]/7bh[8:1],{16}A6/E6/E5/A4,,1hx[4:1],,8>3[16:1],7,6,5,,,5h[24:2]/6h[24:2],,4x/7,,1h[24:2]/2h[24:2],,8x/3,,4/5,,E7/E3,,8,8,1>7[4:1]b,,7,,8,,,,C,,8hx[16:5],,1,2,3q5[8:1],4,,,,,7bh[4:2],,5x,,3h[4:1],,,,{128},Cf/A6/B6/A2/B2,,,,,,,,,,,,,,,{16},,,,8,7,2hx[8:1]/6hx[8:1],,,,A3/E4/E5/A5,,8hx[4:1],,1<6[16:1],2,3,4,,,4h[24:2]/3h[24:2],,5x/2,,8h[24:2]/7h[24:2],,1x/6,,5/4,,E3/E7,,1,1,8<2[4:1]b,,1x,,2x-8-6-4-2<5-3-1-7-5[4:3]b,,,,,,,,,,,,,,,,{4}Cf/B7/B2/B8/B1,,,,,,,,

2h[4:2],,4h[4:1],5h[4:1],{8}7-3[16:1]b,2-6>3-7>2[8:4],,,,,,,{16}1h[32:1]/7h[32:1],1h[32:1]/7h[32:1],1h[32:1]/7h[32:1],1h[32:1]/7h[32:1],{32}D2,D3,D4,D5,D6,,,,{16}8h[32:1]/2h[32:1],8h[32:1]/2h[32:1],8h[32:1]/2h[32:1],8h[32:1]/2h[32:1],{32}D8,D7,D6,D5,D4,,,,{16}1/2,,7/8,,5/6-2[16:1],,3-7[16:1]/4,,,,,,1b/8b,,,,{8}2-5[16:1],4-7[16:1],,,4bx-7[16:1],6-1[16:1],,,6-1[16:1],8-3[16:1],,,8-3[16:1],2-5[16:1],,,8hx[4:1],,6x>1[4:1],,1x<4[4:1],,4x>7[4:1],,7x<2[4:1],,2x<5[4:1],,5x,,1x,,Chf[4:4]/A7f/B7/B3/A3,,A1/A2/E2f/B1/B2,,A7/A8/E8f/B7/B8,,A4f/A5/E5/B4/B5,,{4},,,,

{24}8,8,1,7h[8:1],,,5,,,4/6,,,1,1,8,2h[8:1],,,4,,,5/3,,,7,5,6,3,4,2,7,8,7,2,1,2,{32}3h[32:1]/4h[32:1],,5h[32:1]/6h[32:1],,7h[32:1]/8h[32:1],,1h[32:1]/2h[32:1],,{64}D4,A4,D5,A5,D6,A6,D7,A7,D8,A8,D1,A1,D2,A2,D3,A3,{32}8b,,,,,,1,2,3,8,7,6,1,2,3,7,6,5,2,3,4,7,6,5,3,4,5,6,5,4,{24}3,{16}1,{12}5,(190)7-3[8:1]b,,,{64}A2,B2,Cf,B6,A6,E

MASTER

(125)
{2}E1,C,E5,D5,4>5[2:3]/5,{4},
{8}E6,E5,{2}E4,E1,5<4[2:3],{8},,E4,E5,{2}E6,E1,4>5[2:3],{8},,5,5,{2}5,4,
{48}1bx/8bx,2bx/7bx,3bx/6bx,{16}4bxV62-8V26-4[16:23]b/5bxV37-1V73-5[16:23]b,,,{4},{2},{1},

{8}2b-4[8:1]/6b,17,28,{16}7,7,5-3[8:1],6,{8}4,2h[8:1]/5,,
2v5[8:1]/5,34,26,{16}7,7,5q1[8:1],6,{8}4,35,,
7b-5[8:1]/3b,82,71,{16}2,2,4-7[8:1],3,{8}5,8h[8:1]/4,,
{16}2-5[8:1],1,{8}3,2/8-2[8:1],7-3[8:1],8-4[8:1],7-5[8:1],8,7,

1b-5[8:1],24,15,{16}6,6,8p4[8:1],7,{8}1,28,3,
1/2-7[8:1],78,2/5h[8:1],,{16}7/8^5[8:1],1,{8}2,18,,
3/4^7[8:1],12,34,{16}2,2,8-4[8:1],1,{8}7,6h[8:1]/8,,
2^7[8:1]/5,34,25,{16}6,6,5,5,47,,{12}3/8-4[16:1],27,16,

{1024}8bqq2[16:11]/5b,Cf,{512},{256},{128},{64},{32},{16},{8},{4},{2},
{16}3h[4:3],,,{32}E4,E5,{16}E6,,,,,,,{32}4,5,{4}6pp3[4:3],
{1}6h[4:5],{8}4h[4:1],,,35,2-4v1[4:1],,4,5,
{2}6bhx[4:5],{4}2h[8:1],3h[8:1],4h[8:1],5h[8:1],{16}4,4,5,5,3,3,6,6,
4,4,4,4,4/E6,4,4/E7,,8,8,8,8,8/E4,8,8/E3,,
{32}2x,8,2,8,2,8,2,8,1-5-1[4:1],7,1,7,1,7,1,7,{2}1bw5[8:1]b,

{16}3b/7b,6-4[16:1],4,3b/7b,,1,1,,6b/2b,3,5,2bh[8:1]/6b,,8,1,8,
3b/7b,4-6[16:1],6,3b/7b,,8,8,,3b/7b,8,2,7bh[8:1]/3b,,8,1,2,
3b/7b,6-3[16:1],4,3b/7b,,2,2,,1b/5b,2-5[16:1],4,1b/5b,,7,{8}7,
6h[16:1]/8h[32:1],3h[32:1]/5h[16:1],{24}2,4,2,4,2,4,{32}1h[4:1],,,,,,,E5,{4}E4,

{32}7,8,7,,2,1,2,,34,,,,2,1,2,1,{8}2-6-8[8:1],3/8^3[16:1],26,,
{32}6x,5,6,,3,4,3,,21,,,,7,8,7,8,{8}7-3-1[8:1],6/1^6[16:1],73,,
{32}2/5x,,3,4,{16}3,,2^5[16:1]/5,,8,17,{8}2-7[16:1]/6-3[16:1],8,2b/6b,,
{32}15,,2,4,3,,7,5,{8}6V83[8:1],3V51[8:1]/7,{2}61,

{32}25,,3,4,3,,2,,74,,6,5,6,,7,,2/5V73[8:1],,3,4,{16}3-8[16:1],2,{4}4,
{32}74,,6,5,6,,7,,25,,3,4,3,,2,,7/4V26[8:1],,6,5,{16}6-1[16:1],7,{4}5,
{16}7,7,64,4,35,5,24,2,15,5,26,2,37,7,48,,
{32}2,1,2,1,2,1,2,1,3,8,3,8,3,8,3,8,3,4,5,6,2,3,4,5,1,2,3,4,5,6,7,8,

{1}1b/Cf,{4},,,{16},,5,4,
(130)6,5,4,3h[16:9],{2},{8}E4,E5,
(135){2}E6/4h[8:7],{4}B6/E7,{16},,5,4,
(140)6,5,4,3h[16:9],{2},{8}E4,E5,
(145){2}E6/4h[4:1],{4}B6/E7/4h[4:1],7-5v4-2-4v5-7[1860:2668]b,
(150){1}5hb[124:184],
(155),

(160){2}4b>4[2244:4387],C,
(165)8b<4[136:135],C,
(170)4b>4[2520:4933],C,
(175)8b<4[144:143],C,
(180)4b>8[2:1],8<4[148:73],
(185){4}4b^1[4:1],1^6[4:1],6^3[4:1],3,
(190){8}1b,1,28,28,{16}3,7,4,6,3,5,3,5,{4}2h[4:1]/B6/B7/E7,B3/B2/E3,8h[4:1]/B4/B5/E5,C,

(95)
{16}2bx^4[16:1]/7bx^5[16:1],{48}1,8,1,{8}8,2x/7x,
{24}6/4h[48:1],4h[48:1],4h[48:1],5-1[12:1],5h[96:1],5h[96:1],
6h[96:1],6h[96:1],6h[96:1],5-8[12:1]/7,,,8,7,6,
5/3bpp6[4:1]b,,,2,28,1,{4}13,{32}8,,8,7,65,,3,4,{16}5/6>2>6[4:1],,78,78,
{8}16,,E1/B8/E8,{24}4h[48:1]/6V82[8:1],4h[48:1],4h[48:1],
5h[96:1],5h[96:1],5h[96:1],6/4h[96:1],4h[96:1],4h[96:1],{8}4,3x/5x,
{32}4,4,5,5,4,4,3,3,4-8[16:1],4,5,5,4,4,3,,4bh[8:3],Cf,,,{8},,8,

{48}1b/2b,,,7,8,7,{16}8,5,4x/6x,,{24}3/5h[48:1],5h[48:1],5h[48:1],
4-8[16:1],4h[96:1],4h[96:1],3h[96:1],3h[96:1],3h[96:1],4-1[12:1]/2,,,1,2,3,
4/6bqq3[4:1]b,,,7,71,8,{4}86,{32}1,,1,2,3-8[16:1]/4,,6,5,{16}43,2,31,,
{32}7,6,1,2,7,6,1,2,{48}7,6,5,1,2,3,7,6,5,1,2,3,
8,7,6,2,3,4,8,7,6,2,3,4,1,8,7,3,4,5,{64}2,1,8,7,3,4,5,6,

{4}Cf,,,{16}6,5,4,3,4,5,6,5,4,3,4,5,6,5,4,5,3>6[2:1],2,3,4,
{4}5h[2:1],,,{8}4-2[8:1]b*-8^7-5[4:1]b/5,27,
4b,,{24}1b,,,2,4,3,7,5,6,{48}4,5,4,5,4,5,{4}3b/6b,
{32}1-5-1[8:1]b,7,1,7-3-7[8:1]b,2,8,2,8,{4},
{32}2-6[16:1],8,4-8[16:1],6,1,7,3,5,{16}2,4b,,,
37,{32}7,6,51,,2,3,{8}4/8^3[16:1]*^5[16:1],{32}8w4[16:1],8,8,8,
{8}8b,8b,{32}1^4[16:1]b,6,8,7,1,6,8,7,

{8}1,26,{16}3b-8[16:1]b/5b,1/7v4[16:1],4V61[8:1]/6,28,3b/5,7,,2,{8}2b,37,
{32}8^5[16:1]b,3,1,2,8,3,1,2,{8}8b,34,
{48}2/5b-1-3[48:5]b,,,3,4,3v8[64:7],4,,,6,5,6,{8}5b,7x,
{24}6,6,6,8,8,8,1-5[16:1],1,1,3-6[16:1]*-8[16:1],3,3,{2}3>4[8:1],
{48}2b-4[16:1],1,2,1-5[16:1],2,1,{16}2-6[16:1],,2b,1,2,,
{48}7b-4[12:1]b,8-3[48:3]b,7,8,7,8,{8}7,7b/8b,,

{16}3b^6[16:1],2,2/E5,2,3/8bp4[16:1],7,7/C,7,
8/2b^5[16:1],1,1b/B3/B4,1,2/7bw3[16:1],6,6b/E1/B1,6,
{32}7>7[2:1]*<7[2:1],Cf,,,{8},{4},,,
{32}1,2,3,4,1,2,3,4,8<8^7[32:9],7<8^6[32:9],6>7^5[32:9],5>7^4[32:9],8,7,6,5,
A8,A7,A6,A5,A4,A3,A2,A1,A8,A7,A6,A5,{8}A4,
{48}3,4,3,4,3,4,{24}2h[48:1],2h[48:1],2h[48:1],{48}6,5,6,5,6,5,{24}7h[48:1],7h[48:1],7h[48:1],
{48}2,8,2,8,2,8,1,7,1,7,1,7,{64}1,2,3,4,5,6,7,8,1,8,7,6,5,4,3,2,(130){64}1b/B7f,C,B3,A3,{16},,,

(95)
{32}2,8,2,8,2,8,3,7,3,7,3,7,4,6,4,6,4,6,3,5,3,5,3,5,
{16}4b,4b,{12}4bw8[16:1],4b,4b,{32}4b,{1}B1/B2/B6/B7/B8/Cf,,,,E


Re:MASTER


  • 追加しました。修正等ありましたらよろしくお願いします。 -- けもがみ (2025-03-05 04:10:56)
  • EXPERT譜面を追加しました。修正などありましたらよろしくお願いします。 -- Sugar (2026-01-03 23:46:17)
  • MASTER譜面の{96}1b/B7f,C,B3,A3,,,,,,,,,,,,,,{192},→(130){64}1b/B7f,C,B3,A3,{16},,,の箇所の修正を行いました。 -- けもがみ (2026-01-27 23:41:25)
  • EXPERT譜面の一部のホールドの長さを修正しました。追加修正等ありましたらよろしくお願いします。 -- Sugar (2026-03-15 14:55:54)
名前:
コメント:

タグ:

+ タグ編集
  • タグ:
最終更新:2026年08月07日 22:03