アットウィキロゴ

ATLAS RUSH

アーティスト kanone

BPM BASIC ADVANCED EXPERT MASTER Re:MASTER
156 5 7+ 12+ 14+ -

EXPERT MASTER Re:MASTER
譜面制作者 サファ太 BELiZHEL -

BASIC


ADVANCED


EXPERT


MASTER

(156)
{8}3qq8[2:1],,4,4,,5,5,,5q8[2:1],,1,1,,4,4,,
3pp6[2:1],,8,8,,1,1,,8^5[4:1],,,2,2h[4:1],{16}E5,E4,E3,E2,E1,E8,
{4}1x-5[8:1]/6x,1,{16}4-8[8:1]/6,,,6,4,,6,,
1/7-3[8:1],,,1,7,,1,,1/4-7[8:1],,,1,4,,1,,
1^6[8:1],2,3,4,{4}51,{16}8^5[8:1],1,2,3,{4}48,
{16}5,4,6,3,7,2,8,1,7,2,6,3,{24}5>6[4:3],4,5,4,5,4,
{4}5b,,,3V15[8:3]b,,7z3[4:1]*-4[4:1],,,

{16}25,,3,4,3,,5,4,5,,3,4,3,,5,4,6,,3,4,2,,5,4,6,,2,4,3,,45,,
6,5,6,5,7b,,3,4,2,,6,5,7,,4,5,3,,7,5,7,,46,,5,5,5,5,46,,,,
28,,2,1,3,,8,1,7,,2,1,2,,7,8,7,,6,5,6,,3,4,
3h[8:1],,,2h[8:1]/4h[8:1],,,15,,{1}1<2[2:1]/5h[4:7],8>4V61[2:1],

{8}2^5[8:1]/8,17,28,{16}7,7h[8:1],,5,6,4,5-1[8:1],3,{8}4,
5/2^7[8:1],3,26,{16}5,5h[16:3],,7,{8}7,68,71,
{8}8^5[8:1]/2,13,82,{16}1,1h[8:1],,4,3,5,4-8[8:1],6,{8}5,
4/7^2[8:1],6,73,{16}4,4h[8:1],,1,3,8,2,7,1,6,
{4}8b>5[2:1],B6,C,{16}2,1,8,7,{4}6bx<4[2:1],B3,C,{16}7,8,1,2,
{8}3^8[8:1],3,6^3[8:1],6,1-5[8:1],1,8,8,{16}4,6,2,8,3,5,1,7,2,3,4,5,6,7,8,1,
{1}2bqq5[2:1]/6b,{4}37,,1-5[8:1]/8-4[8:1],18,

{8}B1/B8/D2/D8/E1f/E2/E8,,,45,{16}4/5h[16:3],,,3h[16:3],,,4,,
3,,27,,{24}8-4[8:1],1,8,1,,,{8}2b/8b,,,{16}3,4,
{8}3h[8:3],,,{16}4,3,4,,4,5,,5,{8}6,47,6,4w8[8:1]/5,3,4b,,,{16}7,5,
{8}6h[4:1],,5,6,{16}46,,,6,{8}5,6,46,6,5/6-4[8:1],6,63,,25,{16}3,4,
2,,,3,35,,3,4,2,,,3,35,,2,4,3,,25,,{24}3,4,3,4,,,{4}25,3v8[8:1]/7-4[8:1],

3b/7b^2[8:1],7/3^6[8:1],3/7-3[8:1],7/1-5[8:1],
1^2-4[8:1]/5^6-8[8:1],1/5w1[8:1],5b,{24}37,,,28,37,46,
{4}5-1[8:1],5/2-6[8:1],2/8^5[8:1],8/3^8[8:1],
3-5[8:1]/6-8[8:1],3/6w2[8:1],6b,{24}48,,,48,37,26,
{4}1^4[8:1]/5^8[8:1],1-5[8:1]/5,1/7-2[8:1],7/3v6[8:1],
3^1[8:1]/7^4[8:1],7/3-7[8:1],3/5-1[8:1],5b/2,
{16}4h[8:1]/8h[8:1],,,5h[8:1]/6h[8:1],,,78,,
5h[8:1]/1h[8:1],,,4h[8:1]/3h[8:1],,,21,,
21,,38,,{24}12,38,47,56,,,{2}3b/7b,

{8}3bhx[4:1]/5bhx[4:1],,,2,{16}2h[16:3],,,3h[16:3],,,{8}4,
6h[4:1]/5h[4:1],,,7,{16}7h[16:3],,,6h[16:3],,,{8}5,
3h[4:1]/4h[4:1],,,2,{16}2h[16:3],,,4h[16:3],,,{8}5,
6h[4:1]/5h[4:1],,,7,{16}7h[16:3],,,6h[16:3],,,5,,
3,4,3,4,2,5,2,5,1,6,1,6,8,7,8,7,2,1,2,1,3,8,3,8,4,7,4,7,5,6,5,6,
4,5,3,6,2,7,1,8,2,7,3,6,{24}4,5,4,5,4,5,{4}3bh[2:1]/6bh[2:1],,,B4/B5/E4/E5f/E6,

{16}1b-5[8:1],8,2,7,1-6[8:1],,8,8,1-3[8:1],7,,7,1-5[8:1],,{24}7,6,5,
1^4[8:1],,,8,7,6,1,,,8,,,6,5,7,{8}5,1b-5[8:1]/8b,,
1/7b-4[8:1],{16}8,8,7/2-5[8:1],,1,,2/8b-4[8:1],,7,7,{8}81,2,
3b-1[8:1]/6,{16}4,4,{8}3-6[8:1]/7b-2[8:1],5,{4}3b/7b,4b/8b,

{16}8b-4[8:1],1,7,2,8-3[8:1],,1,1,8-6[8:1],2,,2,8-4[8:1],,{24}2,3,4,
8^5[8:1],,,1,2,3,8,,,1,,,3,4,2,{8}4,1b/5b,,
{16}6,6,5,7h[8:1],,1,8,2,4,4,3,6h[8:1],,5,{8}6,
4b/7b,25,{24}4b,3,5,4,,,{2}2b-6[8:1]/6b-2[8:1],

{8}4-1[8:1]/5-8[8:1],36,4b/5b,,3^8[8:1]/6,4,{24}3/8-4[8:1],7,6,{8}5,
5b-1[8:1],6,5/2b-5[8:1],{16}3,3,{8}2/6b^3[8:1]*^1[8:1],7,6b,,
3-8[8:1]/8,4,3/6-2[8:1],{16}5,5,{8}3^8[8:1]/6,4,{24}3/8-4[8:1],7,6,{8}5,
5b-1[8:1],6,5/2b-6[8:1],{16}3,3,{8}2/8b-3[8:1]*-5[8:1],7,8b,,

4/6^1[8:1],2,{24}61,2,3,{8}4,4/7^4[8:1],12,{24}74,3,2,{8}1,
6/2^5[8:1],18,{24}2/5p1[8:1],6,7,8,,,1,8,7,6,,,{32}26,37,48,51,6,7,8,1,
{8}2bhx[4:1]/6bhx[4:1],,,{24}7,8,7,{8}1bh[16:5]/6bh[16:5],,,{24}3,4,3,
{16}2bh[8:1]/5b,,4,4h[8:1],,3,3h[8:1],,{24}2,1,8,7,6,5,42,1,8,7,6,5,

{1}4bqq1[2:1]/8bqq5[2:1],{4}1>6[2:1],C,{8},7,7,,
{4}8<3[2:1],C,{8},1,1pp5[4:3],,5,5,6,6,7,7,8,,
{16}7,7,5,6,4,5,3,3,5,4,6,5,7,7,56,,2,2,4,3,5,4,6,6,4,5,3,4,2,2,35,,
8,8,4,4,6,6,2,2,4,4,8,8,6,6,1,,3,5,3,5,2,6,2,6,{24}1,7,1,7,1,7,2,8,2,8,2,8,

{8}3bh[4:1]/7bh[4:1],,,{16}4b/6b,4b/6b,4b/6b,,,3b/4b,,,{24}2,1,2,
{16}1bh[8:1],,,2bh[8:1]/8bh[8:1],,,3b/7b,3b/7b,3b/7b,,,5b/6b,,,7b/8b,7b/8b,
{4}1b/6b,{16}38,,1b/2b,1b/2b,3b/8b,,,4b/7b,,,{4}5b/6bh[4:1],
{24}4b,5,3,{4}4b,{16}1b/7b,,,26,2-5[8:1]/6-1[8:1],,37,,

{4}2b/6b,{16}48,,7,5,6,3,4,2,6,5,7,,{32}2,1,2,1,2,1,2,1,{16}2,,3,4,2,7,8,6,3,4,2,,
{32}7,8,7,8,7,8,7,8,{16}7,,6,5,7b,2,1,3b,6,5,7b,,
{48}2b/8h[24:1],1,,7,6,5,{8}4,2b/6,{48}7b/1h[24:1],8,,2,3,4,{8}5,4b/7,
{48}3b/8h[24:5],2,1,,7,6,5,4,3,2,1,B8,Cf,B4,{1}A4,,,,E

Re:MASTER


  • 追加しました。修正等ありましたらよろしくお願いします。 -- けもがみ (2025-04-18 21:28:24)
名前:
コメント:

タグ:

+ タグ編集
  • タグ:
最終更新:2026年04月12日 13:05