アットウィキロゴ

DATAERR0R

アーティスト Cosmograph

BPM BASIC ADVANCED EXPERT MASTER Re:MASTER
180 5 8 11+ 14 -

EXPERT MASTER Re:MASTER
譜面制作者 鳩ホルダー Luxizhel -

BASIC


ADVANCED


EXPERT


MASTER

(180)
{1}4xz8^6[2:3]/5xs1^3[2:3],,{16}45,,3,5,3,5,3,5,4,6,4,6,4,6,4,6,
3,5,3,5,4,6,4,6,3,5,4,6,4,5,3,6,{4}1,Ch[8:3],{32},,,,B2/B6,B3,B7,B4,{4}B8,

{1}1b>8[4:13],Ch[4:1],,Ch[4:1],1^4[4:3],8^5[4:3],4-8[4:3],{2},{16},,1x/8x,1x/8x,{8}27,,
3h[8:3],,4,4h[8:3],,5,{1}5p4[2:1],{8}56,,7h[8:3],,8,8h[8:3],,1,{1}1p8[2:1],{8}18,,
17,2,3,48,7,6,52,,34,34,25,25,16,16,78,78,
{16}2,1,2,1,3,8,3,8,4,7,4,7,5p4[2:1]*<4[2:1],6,5,6,{4}5,,,2x-5[8:1]/6x-1[8:1],

2b/6b,4/8h[4:1],{8}5,5-1[8:1],6,5/7-3[8:1],,8,8V24[4:1],,4,6,{4}8-4[8:1],
8/3-6[8:1],3/7-2[8:1],{8}37,3-7[8:1],,3/1-5[8:1],,18,{4}7-2[8:1]*-4[8:1],7b,1-4[8:1]/5-8[8:1],
1b/5b,3/7h[4:1],{8}2,2-5[8:1],4,4-7[8:1],,8,8^3[8:1],,5,6,7,,
2-4[8:1],2,2-6[8:1],,5,5-1[8:1],,7,7-3[8:1],8,{4}8-4[8:1],8w4[8:1],8b,

{8}1b/5b,{4}3b^6[8:1]/7b,3/8-4[8:1],8/5-1[8:1],5/6-8[8:1],
{8}26,2^5[8:1],,8,7,{4}6-1[8:1],4-7[8:1],2-5[8:1],{8}1,1,,38,
47,{16}6,5,{4}6-2[8:1]*-1[8:1],6b,7-3[8:1]/8-4[8:1],
7b/8b,2h[4:1]/6,{8}6,7-4[8:1],,7/3-8[8:1],,35,5V71[4:1],,1,3,5,,
34,34,56,56,{16}7,8,6,1,5,2,4,3,{1}Chf[4:3],

1h[2:7]/8<1v8[4:11],,,,6V47-3[4:7],,{2}1-5[2:1],{1}8-4[2:1],{16},,4,5,{8}36,,
5h[4:1]/6h[4:1],,,{4}4/7<3[2:1],E2,3V57[2:1],,3,2,
{16}2h[16:3],,,4h[16:3],,,3h[16:3],,,5h[16:3],,,{8}4,5,6,
{16}7h[16:3],,,5h[16:3],,,6h[16:3],,,4h[16:3],,,{8}5,4,
3-6[4:1],{2}3h[8:3],{8}7,7-4[4:1],{2}7h[8:3],{4}3,2,
1s5[8:7],1h[8:7],{1},{8},{4}4^1[8:1]b/8^5[8:1]b,4b/8b,

{16}7,8,7,8,6,,3,4,3,4,2,,18,,57,,6,5,7,1,8,2,4,3,5,4,6,5,{4}4b/7b,
{16}7,8,7,8,6,,2,1,2,1,3,,56,,18,,3,4,2,6,5,7,1-6[8:1],8,{8}2-5[8:1],1,2,,
{16}8b,4,7,5,6,,1,5,2,4,3,,45,,18,,8x/1x,7,6,5x/2x,3,4,{8}5x-1[8:1]/8x-4[8:1],{2}5x/8x,
{16}2hb[16:1]/3h[16:1],,,7hb[16:1]/8h[16:1],,,1h[16:1]/2hb[16:1],,,
5h[16:1]/6hb[16:1],,,1h[32:5]/8h[32:5],,,{32}27,36,
{16}45,,,2h[16:1]/3h[16:1],,,{8}6h[16:1]/7h[16:1],1-5[8:1]/8-4[8:1],27,1b/8b,,

34,78,26,{16}3,4,2,5,3,4,2,,7,8,6,1,7,8,6,,2,1,3,8,2,7,1h[8:1],,8x,7,
65,4x,3,2,7x,6,5,4x/3x,2,1,{8}7x/8x,1x/6x,2x/5x,
{16}3x/4x,5,6,7x/1x,2,3,4x/6x,7,8,1x/2x,3,4,5x/8x,,5x/8x,,17,,2,4,3,,6,5,7,5,8,,12,,38,,
5h[16:1]/7h[16:1],,,2h[16:1]/4h[16:1],,,17,,28,,46,46,,,3,4,
2,5,1,6,8,7,5,6,4,7,3,8,2z6z2[4:3],1,2,1,{1},

{4}7h[2:7],3-5[8:1],3,{8},6,{4}6,5-1[8:1],5,,1,8-6[8:1],8,{8},5,{4}5,6-1[8:1],6,26,
3h[2:3]/5,4-1[8:1],4,{8},1,{4}1,8-4[8:1],8,26,
{16}5hb[16:1]/7h[16:1],,,2hb[16:1]/3h[16:1],,,6hb[16:1]/8h[16:1],,,
3hb[16:1]/4h[16:1],,,2h[24:3]/8h[24:3],,{24},37,46,
{16}5,,,6hb[16:1]/7h[16:1],,,{8}1h[16:1]/8hb[16:1],2-5[8:1]/3-8[8:1],23,,,

37,{16}2,1,2,,7,5,6,5,7,,2,4,3,4,2,,68,,7,1,6,2,5,3,6,4,{4}37,
{32}2bx,3,4h[16:1],,,,1bx,2,3h[16:1],,,,7bx,6,5h[16:1],,,,8bx,7,6h[8:1],,,,{8}2x,1x/8x,
{32}7bx,6,5h[16:1],,,,8bx,7,6h[16:1],,,,1bx,8,7h[16:1],,,,4bx,3,2,1,8h[16:1],,{8}4,4,
15,{16}2,4,3,,6,5,7,,3,4,2,5,1,5,2bx,6,3,7bx,4,8,5bx,1,6bx,2,6h[4:1],{16}2h[16:3],,,
{32},15,84,73,{1}6p6[4:9]/2p2[4:9],,{4},,,{1}1s5[8:1]b,,,,E

Re:MASTER


  • 追加しました。修正等ありましたらよろしくお願いします。 -- けもがみ (2025-04-21 15:55:29)
名前:
コメント:

タグ:

+ タグ編集
  • タグ:
最終更新:2026年04月11日 21:30