アットウィキロゴ

Åntinomiε

アーティスト ああ…翡翠茶漬け…

BPM BASIC ADVANCED EXPERT MASTER Re:MASTER
242 6 9 12+ 14+ -

EXPERT MASTER Re:MASTER
譜面制作者 サファ太 SAFARi☆CAT -

BASIC


ADVANCED


EXPERT

(242)
{2}5v4[1:1]/3h[2:7],,,,4h[2:1],,4,5,
4v5[1:1]/6h[2:7],,,,5h[2:1],,5h[2:1],,
6^3[4:3],,2h[2:1],,3^6[4:3],,Ch[2:1],,
{8}1b,1,,82,82,,4,4,,62,6/2^5[2:1],,,,,,
6b,6,,75,75,,4,4,,53,53,,6b/2b,,,,

3h[4:1],,,3h[4:1],,,42,,5h[4:1],,,5h[4:1],,,64,,
7h[4:1],,,7h[4:1],,,8/6p4[1:1],,{1},
{8}3h[4:1],,,4h[4:1]/2h[4:1],,,51,,6h[4:1],,,7h[4:1]/5h[4:1],,,84,,
1h[4:1],,,8h[4:1]/2h[4:1],,,7/3-5-2-8[4:3],,{1},
{8}7h[4:1],,8,7h[4:1],,8,6,6,2h[4:1],,1,2h[4:1],,1,3,3,
7h[4:1],,8,7h[4:1],,8,6/1-5[4:3]b,,{1},
{8}6h[4:1]/4h[4:1],,,6h[4:1]/4h[4:1],,,75,,6h[4:1]/4h[4:1],,,6h[4:1]/4h[4:1],,,53,,
4h[4:1]/2h[4:1],,,1h[4:1]/3h[4:1],,,8h[4:1]/2h[4:1],,,7h[4:1]/1h[4:1],,,6b/2b,,,,

3,,42,,1,1,8,8,6h[4:1],,7h[4:1],,5h[4:1],,6,,
7,,74,,8,8,1,1,3h[4:1],,2h[4:1],,4h[4:1],,3,,
2,,42,,5,5,3,3,7,7,5-1[4:1],,,,,,
{16}8x/2x,,,8x/2x,,,8x/2x,,1x/3x,,,1x/3x,,,1x/3x,,8x/2x,,,8x/2x,,,8x/2x,,{8}7bx/3bx,,,,
2-4[8:1],,4bx,,5,5,64,,7-5[8:1],,5,,4,4,53,,
4x/2x,4x/2x,,8x/1x,8x/1x,,7x/5x,7x/5x,,4x/3x,4x/3x^8[4:1],,,,,,
7h[4:1],,5,5,6,6,4,,5/3h[4:1],,4,4,4b/1b,,23,,
2h[4:1]/3h[4:1],,,5h[4:1]/4h[4:1],,,7h[4:1]/6h[4:1],,,8h[4:1]/1h[4:1],,,7b/2b,,,,

{8}4^1[4:1],,,,7^4[4:1],,,,2^7[4:1],,,,6x,6x,6x,,
{4}65,74,12,43,6/2h[4:1],1,4/7h[4:1],8,
1^4[4:1],,6^1[4:1],,3^6[4:1],,{8}7x,7x,{4}7x,
78,61,43,12,8/3h[4:1],4,1/6h[4:1],5,
74,52,{16}3h[16:3],,,4h[16:3],,,5,,
{4}5,73,4,62,
53,64,{16}6h[16:3],,,7h[16:3],,,8,,
{4}8,71,53,7<2>7[1:2],
{1},,Ch[1:1],
{4}8b,,,81,
{12}7x,8x,7x,8x,,,6,5,6,5,,,3,4,3,4,,,2,1,2,1qq5[2:3],,,
{1},,7/8pp4[4:7],,
{8}5,,5,,53,,62,,1,1,7,7,2,2,8<2[1:1],,
{1},1h[1:13],

E1,C,E5,C,8h[1:1],,2h[1:1],,
{2}E1,E2,E3,E4,B4,E3,E4,C,
8h[1:3],E1,E8,E7,Ch[1:2],,,,
{8}8,8,8-5[2:1]b*-3[2:1]b,,,,,,
{4},,62,62,

7b-4[8:1],8-3[8:1],6-1[8:1],5-2[8:1],7^4[8:1],1,12,83,
{8}7,7,5,6,3,3,4,2,8b,,71,71,71,,54,,
{4}2b-5[8:1],1-6[8:1],3-8[8:1],4-7[8:1],2^5[8:1],8,78,61,
{8}1,1,4,4,6,6,75,,8-4[8:1]/2-4[8:1],,,,5bx/3bx,,,,
1h[4:1]/2h[4:1],,,8h[4:1]/3h[4:1],,,74,74,,52,5^8[4:1]/2^5[4:1],,,,,,
8h[4:1]/5h[4:1],,,7h[4:1]/6h[4:1],,,54,54,,42,4^7[4:1]/2^7[4:1],,,,,,
1b,,82,,4,5,61,,8b,,74,,5,4,8/3>5[2:1],,
Cf,,,,,,8x,8x,,5x/3x,5x/3x,,7b/1b,,,,

{2}B6/B2/Ch[1:1],,
,{12}8x,1x,8x,{4}1x,
2b/7b-4[8:1],3-8[8:1],6-1[8:1],2-5[8:1],8-3[8:1],4,12,8bx/3bx,
7b/2b-5[8:1],6-1[8:1],3-8[8:1],7-4[8:1],1-6[8:1],5,78,6bx/1bx,
{8}2,2,4,4,6,6,8,,1-6[8:1]/2-5[8:1],,,,7-4[8:1]/8-3[8:1],,,,
5x/2x,,1,1,82,,65,65,,43,43,,1/2-6[8:1],,8,,
7x/5x,,54,,2h[4:1],,1,1,,83,83,,7,6,5,4,
7b/3b,,12,1/2h[4:1],,4,4,,5b/3b,,78,78,,12,1/2>8[2:1],,
{4}Cf,,,2h[4:1]/1-7-5-3[4:3],,,,1x,
{8}2,2,8,8,1,1,7,7,1b,2,3,4,5,6,7,8,
{4}1bh[4:5],,,,Ch[4:1],,1x,1x,

{8}8b/2b,82,,65,65,,71,71,,43,43,,82,82,,65,65,,23,23,,78,78,,13,13,,54,54,,63,,
7b,7,7,1,1,1,3,3,3,5,5,5,7,7,78,,
6b/1b,2,3,4,8,7,6,5,4bx/2bx,4bx/2bx,4bx/2bxpp6[2:1],,,,,,
{4},2b/8bh[4:11],,,{1},,
{8}1,1,7p1[2:1]/2p6[2:1],
E

MASTER

(242)
{1}3h[2:1]/5h[1:3],4h[2:1],{2}B5,E6,E5,5/4h[1:4],{1}6h[2:1],5h[2:1],{2}B4,E4,Ch[2:1],,
E1,C,E5,E4/E6,{4}5h[4:1],3h[4:1],4,5/Ch[2:1],{2},{8}8,8,8-4[8:1]/1,,
2b,2-6[8:1],,7b,7-3[8:1],,1b,1-5[8:1],,8b,8,,71,71,2-6[8:1]/6,,7b,7-3[8:1],,1b,1-5[8:1],,8b,8,,
5h[16:1],5h[16:1],5h[16:1],4h[16:1]/6h[16:1],3h[16:1]/7h[16:1],2x/8x-4[8:1],,

28,1^6[4:1]*V75[4:1],{2},{8}4-8[8:1],,64,5^2[4:1]*V31[4:1],{2},{8}7-3[8:1],,
17,8^5[4:1]*V64[4:1],{2},{8}8h[4:1],,4,4,4,4,35,,1-6[8:1],,
17,8V24[4:1]*-3-5[4:1],{2},{8}6-3[8:1],,64,5V71[4:1]*-8-2[4:1],{2},{8}3-6[8:1],,
35,4V28[4:1]*-1-7[4:1],{2},{4}5-1[8:1],4/5b,,{16}3,5,3,5,{8}2b,,

3hx[8:3]/4hx[8:1],{32},5x,6x,7hx[32:13],{4},{32}3x,2x,1x,8x,{8},6bx,,
6hx[8:3]/5hx[8:1],{32},4x,3x,2hx[32:13],{4},{32}6x,7x,8x,1x,{8},3bx,,
1hx[8:3]/2hx[8:1],{32},3x,4x,5hx[8:3],{4},{32}1x,8x,7x,6x,{8},4bx,,3,3,8,8,17,,38,,
2h[8:3]/1h[8:1],{32},8,7,6h[32:13],{4},{32}2,3,4,5,{8},8b,,
7h[8:3]/8h[8:1],{32},1,2,3h[32:13],{4},{32}7,6,5,4,{8},1b,,
38,3h[8:1]/8h[8:1],,47,4h[8:1]/7h[8:1],,36,3h[8:1]/6h[8:1],,45,4h[8:1]/5h[8:1],,{16}4,5,4,,{8}2b/7b,,

6hx[8:1],5x,6h[8:1],5,6h[8:1],4,6h[8:1],5,7h[8:1],8,7h[8:1],8,7h[8:1],8,{16}16,2,3,4,
{4}8h[8:1]/5,8h[8:1]/6,8h[8:1]/6,8h[8:1]/5,1h[8:1]/4,1h[8:1]/3,1-6[12:1]/2-5[12:1],,
{8}3hx[8:1],4,3h[8:1],4,3h[8:1],5,3h[8:1],4,2h[8:1],3,2h[8:1],4,2h[8:1],3,23,,
{12}1b/4b,,2b/5b,,6,6,5b,,7b/4b,,3,3,4b,,2,2,7,7,{16}1,2,3,4,5,6,7,8,

{4}1w5[8:1],1x,3b/7h[8:1],4/6h[8:1],6/5h[8:1],5/4h[8:1],4/3h[8:1],25,
{16}3,4,3,4,3,,6,5,6,5,6,,1,8,1,8,1-6-3-8[2:1],8,1,8,{4}1,,,
{8}7bh[8:1],1,5h[8:1],3,7h[8:1],8,1h[8:1]/6h[8:1],,2h[8:1],8,37,,{12}2x,4x,3x,6x,5x,7x,
{8}1^6[8:1],,5,5-1[8:1],,2,2^5[8:1],,7,7h[4:1],,,{16}1,8,1,8,{8}2x/7x,,

1-5[8:1],,8,7^4[8:1],,3,2h[4:1],,1-6[8:1],,3,4^1[8:1],,6,6,,
7V51[4:1]/8-4-2[4:1],78,{4},,37,5-2[8:1]*-8[8:1],5,1^4[16:3],{16}15,6,7,8,
{8}1-5[8:1],,3,3-8[8:1],,6,{4}6^3[4:1],3-7[4:1],7^2[4:1],2,5,
{8}3V15[4:1]/4-8-6[4:1],34,{4},,73,1-6[8:1]*-4[8:1],1,5^8[16:3],{16}51,2,3,4,
{2}5xv2[8:1]/1xv6[8:1],{16}4,,,35,,,26,,{4}2-5[8:1]/6,1-6[8:1],8-3[8:1],7-4[8:1],
2x^7[8:1],,{16}5,,,46,,,37,,{4}3/7h[4:1],5-1[8:1],6bx,{48},,,,,,,,,,7x,6x,

{1}5x<5[2:5]b,,,{16}A1,E1,E8,A7,A2,B2,B6,A6,A3,E4,E5,A5,{4}8x,
1b/7b,{12}2,2,1,3bh[4:1],,,6,6,5,7b,5,7,5,7,4,8b,4,8,5,7,5,
{8}6b>6[1:1],,,8hx[8:3],,,,,6bV42V86[1:1]b,,,8hx[8:3],,,,,
6b^5^4^3^2^1^8^7^6[1:1],,,8hx[8:3],,,,,6bV42V86[4:3]b,,,8hx[8:3],,,,,
{8}5,5,5,5,7,7,1,1,3,3,5,5,3,3,2/4h[4:1],,
{16}3,2,1,8,4,3,2,1,5,4,3,2,8bx,7bx,6bx,5hbx[16:137],{1},

4>4<4V28V64V68V24[16:119]b,{1},,,,,,,
{8}5h[2:7],,,E4,,,C,,,E2,,,{2}D4/E4,
{8}E6,,,E7,,,C,,,E8,,,{2}Ch[8:43],
{8}7,,8,8h[8:3],,,,,7,,8,8h[8:3],,,,,
{2}8^5-1[1:1],,,{8},,1x,1x,,8,8,8,7,7,7,7b,{2},{16}1h[16:3],,,8,,,27,,

{4}2b-7[8:1]/7bv4[8:1],2/7>5[16:5]b,6x,{8}7,7,{4}7-4[8:1],8-4[8:1],1-4[8:1],3,
{8}2-5[8:1],5-2[8:1],2<4[16:5]b,8b,,,{32}A1,D1,A8,D8,A7,D7,A6,D6,{8}A5f/1bx,,24,3,46,7,{4}83,
7b-2[8:1]/2bv5[8:1],2<4[16:5]b,3x,{8}2,2,{4}2-5[8:1],1-5[8:1],8-5[8:1],6,
{8}7-4[8:1],4-7[8:1],7>5[16:5]b,1b,,,{32}A8,D1,A1,D2,A2,D3,A3,D4,{4}A4f/1bxw5[8:1],1x,3b/7b,18,
{16}2b/6b,,3,4,3,,2,,6,5,{8}6,7,1,28,2,24,2,21,2,26,,
{16}7b/3b,,6,5,6,,7,,3,4,{8}3,2,8,71,7,75,7,78,7,71,,
{8}28,1<5[6:1]b,7,1,,{24}2,1,8,7,6,5,{8}4,1,8>4[6:1]b,2,8,,{24}7,8,1,2,3,4,{8}5,
7b,7b-3[8:1],,4b,4b-8[8:1]b,,6b,6b-2[8:1],,1b,1b,,{16}1hx[8:1],,,2hx[8:1]/8hx[8:1],,,3x/7x,,

{2}3bhx[8:7]/7bxp6V42-8[4:3],,,{12}1b,1,1,8b,8,8,
{4}2-5[8:1]/7-4[8:1],2b/7b,{8}1-5[8:1],6-2[8:1],1-3^5-7[8:3],6,{4}1,8w4[8:1]b,8bx/B3/B4f/B5,,
2-5[8:1]/6-1[8:1],26,{8}48,8,5,6,{4}7-4[8:1],8-5[8:1],1-6[8:1],3,
{8}5,4>7[32:11],3,2h[8:3]/4,,,{32}6,5,4,3,2,1,8,7,
{4}6hx[4:1]/4b,{32}E5,E6,E7,E8,E1,E2,E3,E4,{4}A4/A5/D5f,18,
{16}2b/7b,,6,5,6,,7,,3,4,{8}3,2,7,78,16,{4}2-5[8:1]/5-8[8:1],25,7^4[8:1]/4^1[8:1],
74,8-4[8:1],{8}8/6-1[8:1]b,6,2-5[8:1]b,2,7-3[8:1]b,7,{4}3x,1b/5b,{16}2,4,2,4,
{8}2,1<5[6:1],7,1,,{24}2b,1,8,7,6,5,{8}4,1,8>4[6:1],2,8,,{24}7b,8,1,2,3,4,{8}5,
{4}3bx-8[8:1]/7bx-4[8:1],37,{8}1^4[8:1],5^8[8:1],1,5,{4}1x,2w6[8:1]b,2b,,
{8}35,3,7,7,24,2,5,5,{16}2,6,2,6,2,6,2,6,3,7,3,7,{4}3p1^4[4:5]b,{1}6q8^5[1:1],{4},,,7x-3[8:1]/8x,

{8}7b/1,2-7[8:1]b,,2b/4,6-1[8:1],,5/6b,3-8[8:1]b,,3b/5,7-4[8:1],,1/7b,2-5[8:1]b,,1/2b,
8^5[8:1],,4/8b,3^8[8:1]b,,3b/4,5-1[8:1],,3/5b,2V46-3[8:3],,8,{2}8b,
{8}2/4b,3,3,6b/8,7,7,1b/3,2,2,5/7b,6,6,3b/5,35,2h[8:1]/6bh[8:1],,
1/7b-3[8:1],7,7/2b-6[8:1]b,2,2/8b-4[8:1],8,8/1b,,
{16}2,8,2,8,2,8,2,8,{32}3,4,5,6,7,8,1,2,3,4,5,6,7,8,1,2,
{4}3x-8[8:1]`7x-4[8:1]b,{16}3xV58<3[4:7]b`7xV14>7[4:7],Cf,{8},{2},{1},,
{8}4h[16:1]/8h[16:1],4h[16:1]/8h[16:1],4h[16:1]/8h[16:1],4h[16:1]/8h[16:1],
{16}1,5,1,5,D2/A2,D6/A6,D8/A8,{1}D4/A4,,,,E

Re:MASTER


  • 追加しました。修正等ありましたらよろしくお願いします。 -- けもがみ (2025-04-23 20:49:21)
名前:
コメント:

タグ:

+ タグ編集
  • タグ:
最終更新:2026年06月24日 18:25