BASIC
ADVANCED
EXPERT
(222)
{8}5,,,4,,,3,,,2>6[8:7],,,,,,,,,,,,,,,
4,,,5,,,6,,,7<3[8:7],,,,,,,,,,,,,,,
2h[4:1]/4h[4:1],,,2h[4:3]/4^6[2:1],,,,,,,,,
7h[4:1]/5h[4:1],,,7h[4:3]/5^3[2:1],,,,,,,,,
2h[4:1]/4h[4:1],,,24,,,3,,4,,5,,
67,,,23,,81,8-5[4:1]/1-4[4:1],,,,,,
7b/2b,,2,2,1,,83,,7,7,8,,61,,2,2,1,,83,,61,,78,,
83,,7,7,8,,61,,2,2,1,,83,,7,7,8,,61,,83,,81,,
{4}8b/2b^5[2:1],,,B1/B2,,,1/7^4[2:1],,,B7/B8,,,
8/2^5[2:1],,,B1/B2,,,1/7^4[2:1],,,8x,6x/2x,4x/3x,
{8}8x/1x,,2,2,4,,5,,6,,7,,81,,7,7,5,,4,,3,,2,,
1h[4:1]/2h[4:1],,,8h[4:1]/3h[4:1],,,7h[4:1]/4h[4:1],,,6h[4:1]/5h[4:1],,,
8/7-3[8:1],,,1-5[8:1],,,8,,74,,,,
6/5h[8:3],,,4h[8:3],,,2h[2:1],,1,,8,,
7h[4:1]/3h[4:1],,,6h[4:1]/4h[4:1],,,5-7[8:1],,4,,4,,
6/5h[8:3],,,4h[8:3],,,2h[2:1],,1,,8,,3,3,7,7,5,5,8^5[4:1],,4,,3,,
2/4h[8:3],,,5h[8:3],,,7h[2:1],,8,,1,,
2h[4:1]/6h[4:1],,,3h[4:1]/5h[4:1],,,4-2[8:1],,5,,5,,
4h[4:1]/2h[4:1],,,42,,,12,,78,,65,,
{12}3x,4x,3x,4x,3x,4x,3x,4x,3x,{4}C,,,
{8}8/2-5[8:1],,1-6[8:1],,,,8-3[8:1],,7-4[8:1],,,,
2>6[4:1],,1,1,1p6[2:1],,5h[2:1],,,,,,
1/7-4[8:1],,8-3[8:1],,,,1-6[8:1],,2-5[8:1],,,,
7<4[4:1],,8,8,,1,1b/3b,,6b/8b,,7b/3b,,
6,6,1,1,4,4,2,2,8,8,5,5,6,6,1,1,4,4,2,2,8,8,4-6[8:1],,
7b,7b,,,5-3[8:1],,2b,2b,,,4,,
5/7h[8:3],,,8,,61,61,,72,,83,,
{4}3/1h[4:9],,B8,B1,,B5,B4,,E7,E3,,,
8h[4:11],,B6,B7,,B3,B2,,C,E1,,,
7/1h[4:9],,B5,C,,B7,A8,,B2,D2,,,
2/8h[4:9],,B4,C,,B2,A1,,B7,D8,,,
{8}7hx[4:1]/1hx[4:1],,,7h[4:1]/1h[4:1],,,78,,6,,54,,
3-5[8:1],,7,7h[8:3],,,8,,1,,2,,
2hx[4:1]/8hx[4:1],,,2h[4:1]/8h[4:1],,,21,,3,,45,,
6-4[8:1],,2,2h[8:3],,,1,,8,,7,,
{4}65,4,3,12,8,7,65,43,12,68,64,42,
{8}8bx,8-4[8:1],,2bx,2-6[8:1],,7,,58,,14,,2b/3b,,6b/7b,,8b/1b,,5b<4[4:5]/4bq5[4:5],,,,,,
{1},{2},
{8}8b/4b,,,62,62,62,62,,8bx/1bx,,,,
8/2-5[8:1],,1-6[8:1],,,,8-3[8:1],,7-4[8:1],,,,
2>5[4:1],,1,1,,8,6b/8b,,1b/3b,,6b/2b,,
3,3,8,8,5,5,7,7,1,1,4,4,3,3,8,8,5,5,7,7,1,1,4-7[8:1],,
2b,2b,,,5-2[8:1],,7b,7b,,,4,,
4/2h[8:3],,,1,,38,38,,27,,54,,
{8}3hx[2:1],,1,,8,,6h[2:1],,5,,4,,3h[2:1],,1,1,1<5[2:1],,2h[4:3],,,,,,
4,4,1,1,7h[4:1],,5,5,8,8,2h[4:1],,4-6[8:1],,1-3[8:1],,7,,58,,73,,54,,
6hx[2:1],,8,,1,,3h[2:1],,4,,5,,6h[2:1],,8,8,8>4[2:1],,7h[4:3],,,,,,
5,5,8,8,2h[4:1],,4,4,1,1,7h[4:1],,5,5,8,8,2-6[8:1],,
7-1[8:1],,3-5[8:1],,8-4[8:1],,3-1[8:1],,7-5[8:1],,
2x,2x,4,4,1,1,8,8,
75,,42,,8-2[8:1],,3-7[8:1],,6-4[8:1],,1>8[4:11],,5bhx[4:11],
E
MASTER
(222)
{4}4h[8:3]/5<3[1:2],,,4h[8:3],,,5h[8:3],,,5x,,4,
5h[8:3]/3>5[1:2],,,5h[8:3],,,4h[8:3],,,4,,{8}5,5,
{8}4h[4:1]/6bhx[4:1],,,5h[4:1]/3bhx[4:1],,,5/7bx-4[4:1],,4,,3,3,
2bhx[4:1]/4h[4:1],,,7bhx[4:1]/5h[4:1],,,2/1bx-6[4:1],,3,,4,4,
3h[4:1]/5h[4:1],,,2h[4:1]/4h[4:1],,,{4}1x/2,7/8x,15,
{12}2x,4x,3x,7x,5x,6x,4x,5x,4x,{4}3hx[4:1]/6hx[2:1],,,
1b/8b,{8}2,1,2,3,{4}2-5[8:1],8,7h[4:1],5,{8}6,5,6,7,{4}6-1[8:1],4,3h[4:1],
1<3[2:1],3,2,1>7[2:1],7,8,{8}1,1,8,8,{24}7x,1x,7x,1x,,,
{4}2bx-5[8:1]/6bx,8bx-3[8:1],6bx-1[8:1],
{2}4h[2:3],,,{4}E4,E5,E6,E7/1h[2:1],,7,
2h[2:1]/6,,,3/4h[2:1],,,B5/B6/E6/Ch[4:3],,,8x,1x/B6/E7,7x/B2/E3,
{8}8-4^7[1:1]/3h[4:1],,,3h[4:1],,,{4}E2,C,E6,
{8}4-8^3[1:1]/7h[4:1],,,7h[4:1],,,{4}E6,C,E2,
{8}1/8h[2:1],,,6,5,,8/1h[2:1],,,3,4,,
1/8b^5[8:1],,4,3b^8[8:1],,5,{4}4b-7[8:1]b,2b-5[8:1]b,8b-4[8:1]b,
{8}1bh[8:3],,,4,{4}4<8[4:1],8>4[4:1],4,{8}8,8,
1/7h[2:1],,,5,{4}5>1[4:1],1<5[4:1],5,{8}1,1,
2/8h[8:3],,,5,{4}5q3[8:3],7,8,1,
{8}2b/4b,3,5,1,8,5,{4}4x/6x,37,5-2[8:1]/6,
{8}8bhx[8:3],,,2,{4}2<6-4[8:3],6V42[4:1],2,{8}7,6,
5h[2:1]/1,,,8,{4}8>4[4:1],4<8[4:1],8,{8}4,5,
6h[8:3]/4,,,8,{4}8-3-6[2:1],6,7,8,
{12}7,5,6,2,4,3,6,4,5,{2}Cf,{8}1^4[8:1],7,
1b^6[8:1],,1-5[8:1],,1,{24},6x,7x,{4}8x-4[8:1],8^3[8:1],8^5[8:1],
8b,{8}3,4,1q6[4:1],7,{2}6,{8}7^4[8:1],8,
17,,3h[4:1],,5,{24},5x,6x,{4}7x-3[8:1],7/1-5[8:1],1/8^3[8:1],
8/4x,{8}5,5,,28,{4}3-8[8:1]/7-4[8:1],3/7,1b/5b,
2^5[4:1],5q3[4:1],{24}8,,,,8x,7x,{4}6x^3[4:1],3p5[4:1],1,
2h[4:1],{8}4,3,8,5,6,6,2,2,16,{24}1x/6,2x,3x,
{8}4bx/7bx,4bx/7bhx[8:3],,,B3/B4/E4f,{24}8x,7x,6x,
{8}5bx/2bx,5bx/2bhx[8:3],,,B6/B5/E6f,,
8b,,17,1-5[8:1]/7,,5,{4}6b^3[8:1]b,2b^7[8:1]b,6b-1[8:1]b,
{1}Ch[1:3],,,{4}E1,,,E2,,,E3,,,E4/E6,,,
{8}4,4,5,6,7h[4:1],,3,3,4,5,6h[4:1],,2,2,3,4,5h[4:1],,3,3,4,5,6h[4:1],,
4,4,5,6,7h[4:1],,3,3,4,5,6h[4:1],,3,3,4,5,{4}46,35,46,4x/5x,
{8}3/7b-4[8:1],,1,2-5[8:1],,6,{4}7>3>7[2:1],5,4,
3-6[8:1],{8}6,7-2[8:1],,4,{4}3<7<3[2:1],1,8,
{8}7h[4:1],,5,5h[4:1],,3,{4}3-6[8:1],1^4[8:1],8,
{8}6h[4:1],,8,8h[4:1],,1,{4}1-5[8:1],3-8[8:1],4,
{4}6-2V85[2:1],1,4,3-7V14[2:1],8,4,
6-3[4:1],3-8[4:1],8-5[4:1],5-2[4:1],2-7[4:1],7,
{8}5h[4:1],,,46,,35,{4}26,47,36,
{24}4,5,4,5,4,5,4,5,4,5,4,5,{4}4-8[8:1],6bh[4:3],,,
{2}Chf[2:3],,,{8}8b,,,26,26,26,{4}1w5[8:1]/7,1,,
3b^8[8:1]/7b^4[8:1],3-7[8:1]/7,1x/3,{24}1x-6[8:1],2x,3x,,,,{4}1-4[8:1],1,
8h[4:1],{8}4,6,1,4,{4}2b-5[8:1]/6bv1[8:1],2b/6b,4b/8b,
{8}2-4[8:1],4-8[8:1],2,7,6-4[8:1],1,6bV84[4:1],3,6,1,2-5[8:1]b,5,
2b,,8,7,16,25,4-8[8:1],3,4,1,{24}7x,6,5,1x,2,3,
{8}4bx/8bx,5bx-1-3[4:1]/7bhx[4:1],,,,,4bx/8bx,5bhx[4:1]/7bx-3^1[4:1],,,,,
{24}4x/8x,3x/7x,2x/6hx[12:2],{4},{24}1x/5x,2x/6x,3x/7hx[12:2],{8},5,
{4}4b/1b-6[8:1],1/3b-8[8:1],3/5bx,
4bx/7bx-1[8:1],7/3-7[8:1],3/5<1-3[8:3],1V35[4:1],5V71[4:1],1-5[4:1],
4x,{8}2,2,1>6[4:1],8,{2}7x,{12}47,,,
2,4,3,6,4,5,3,4,3,7,5,6,3,5,4,6,5,6,
4,3,2,18,7,6,3,4,3,{4}2^8[8:1]/5,2b-5[8:1]/7-4[8:1],2b-8[8:1]/7,
2/6b-2[8:1],6/4>8-6[8:3],8V64[4:1],4V28[4:1],8>4[4:1]b,5,
6x,{8}7,7,8<3[4:1],1,{2}2x,{4}24,
{12}6,4,5,2,4,3,6,5,6,4,3,2,18,7,6,3,4,3,
{8}7-4[8:1],1-4[8:1],7,1,{24}8,7,6,1,2,3,
{4}4bx^1[8:1]/8bx-5[8:1],4b/8-4[8:1]b,6-3[8:1]b*-1[8:1]b/8b,
6b,4b/8b,{12}6,5,6,{8}3-5[8:1],8-3[8:1],3,8,1x,{16}2,4,
{8}2v5[8:1],5,2,{24}6,7,8,{8}1-5[8:1],3,
{4}1^4[8:1]*^6[8:1],1w5[8:1],1,{1}3b/7b,,,,E
Re:MASTER
- 追加しました。修正等ありましたらよろしくお願いします。 -- けもがみ (2025-04-26 21:52:11)
最終更新:2026年04月08日 22:41