アットウィキロゴ

Synthesis.

アーティスト tn-shi

BPM BASIC ADVANCED EXPERT MASTER Re:MASTER
180 5 8+ 12+ 14 -

EXPERT MASTER Re:MASTER
譜面制作者 Jack サファ太 -

BASIC


ADVANCED


EXPERT

(180)
{1},,,{4},,,{16},,,,
{16}8xh[16:3],,,6h[16:3],,,5xh[16:3],,,3h[16:3],,,8^5[16:1],,,,,,
{16}2xh[16:3],,,1,,,7xh[16:3],,,8,,,1,,
{16}1xh[16:3],,,3h[16:3],,,4xh[16:3],,,6h[16:3],,,
{4}1-3[8:1],5-7[8:1],3-5[8:1],7-1[8:1],
{4}5>5[1:3],Ch[1:2],,,{1},,{4},
{4}A8,C,A4,A2/A6,
{8}5xh[8:2]/3xh[8:5],,,4h[8:5],,,2h[8:5],,,3h[8:2],,,{4}1-5[8:1]/4,,
{8}4xh[8:2]/6xh[8:5],,,5h[8:5],,,7h[8:5],,,6h[8:2],,,{4}8-4[8:1]/5,,
{4}3/5,3/4,2-5[8:1]/4,8,
{4}6/4,6/5,7-4[8:1]/5,1,
{8}3,3,7,7,{16}2,8,2,8,2,8,2,8,
{4}1-7-3-5[2:1],,,7-3[8:1]b,
{4}1b,2,3/4,2h[4:1]/5,
{4}1,2/8,6-4[8:1],2-6[8:1],
{4}8,7,5/6,4p2[2:1]/7,
{4}5,,7x-4[8:1],3x-8[8:1],
{4}5x,7,5/6,4/7h[4:1],
{4}8,2/6,3-5[8:1]/7-3[8:1],,
{4}1h[4:1],3h[4:1],5h[4:1],7<1[2:1],
{4}8x,,8w4[8:1],,
{8}2x/6x,,1b/7b,,8,8,1>4[8:1],,
{8}6,6,5,6,4/7,,2/5<8[8:1],,
{4}4,1/2,3h[8:1]/4h[8:1],5h[8:1]/6h[8:1],
{4}8-3[8:1]/7-4[8:1],,{16}2h[16:3],,,3h[16:3],,,{8}4,
{8}4-1[8:1]*-7[8:1],,,,8,8,1/7,,
{8}6,6,5,7,1,1,2/8,,
{16}7h[16:3],,,6h[16:3],,,5,,{8},1/2,1/2,3^8[8:1]/8<5[8:1],,,,
{8}4x,4x-8[8:1]b,,,,
{16}1h[16:3],,,2h[16:3],,,3h[16:3],,,4h[16:3],,,5,,,,
{4}7/8-4[8:1],6,3/5-1[8:1],2,
{16}8h[16:3],,,6,,,1h[16:3],,,3,,,2/7,,,,
{4}6-3[8:1],1,2-7[8:1],5,
{16}8h[16:3],,,7h[16:3],,,6h[16:3],,,5h[16:3],,,4,,,,
{4}2/1-5[8:1],3,6/4-8[8:1],7,
{8}1xh[8:2]/5xh[8:2],,,4h[8:2]/8h[8:2],,,2x/6x,,
{4}3,4,5,6<5[1:3],
{1}Cf,,,{4},,,{16},,,,
{2}2h[1:1],E4,4h[1:1],B3,5h[1:1],B6,7h[1:1],E6,
{1}3x,
{2}4/6,3/5,
{4}2b-5[8:1]/6b-1[8:1],,{8}3,3,4,2h[4:1],,
{8}1,3/8,,7/8,7/8,1/6,,
{8}3,3,4,2,8,1,7,7,5,6,3,3/4,,7,7-3[8:1],,
{4}1,2/8,{16}5h[16:3],,,6h[16:3],,,7,,4h[16:3],,,3h[16:3],,,2,,2-6[8:1],,,,,,,,
{4}8h[1:2],E8,E7,E6,E5,E4,E3,E2,
{4}1h[1:2],D1,D2,D3,D4,D5,D6,D7,
{4}7h[1:1],E8,B6,E5,
{4}2h[1:1],E2,B3,E5,
{4}6h[2:1],E6,3h[2:1],E4,
{4}5h[4:1],4,5,3/6,
{4}2xh[8:1],3/4h[8:1],3h[8:1],4/5h[8:1],
{4}7xh[8:1],6/5h[8:1],6h[8:1],5/4h[8:1],
{4}1xh[8:1],2/4h[8:1],3h[8:1],4/6h[8:1],
{4}8xh[8:1],7/5h[8:1],6h[8:1],5/3h[8:1],
{4}1>4[8:1],6,8<5[8:1],3,
{4}2-6[8:1],8,1/7,2qq7[2:3]/6qq3[2:3],
{1},,
{16}8b/1bh[16:3],,,3h[16:3],,,4h[16:3],,,6h[16:3],,,5x-1[16:1],,,,
{16}7,,7h[16:3],,,8,,,2h[16:3],,,1,,,4/8,,
{16}4h[16:3]/8,,,5h[16:3],,,6h[16:3],,,7h[16:3],,,8>6[2:1],,,,
{4}6,,7-3[8:1],1b,
{16}2x/8xh[16:3],,,6h[16:3],,,5h[16:3],,,3h[16:3],,,4x-8[16:1],,,,2,,
{16}2h[16:3],,,1,,,7h[16:3],,,8,,,1/5,,
{16}1/5h[16:3],,,3h[16:3],,,7h[16:3],,,1h[16:3],,,8,,,,
{16}2/7,,6,5,6,,{16}3,4,3,,{16}6,5,7,,{16}3,4,
{8}2-6[8:1],,8b,,1/7,1/7,2x/6x,,
{16}3,,3h[16:3],,,1h[16:3],,,8h[16:3],,,6h[16:3],,,5,,
{16}5/7,,,1/8,,,2/4,,,1/8,,,3/6,,,,
{16}2,1,2,,7,8,7,,8x<5[8:1]b/1x>4[8:1]b,,,,,,,,
{16}2x/7xh[16:3],,,5h[16:3],,,4h[16:3],,,2h[16:3],,,1x-5[16:1],,,,
{16}3,,3h[16:3],,,4,,,7h[16:3],,,5,,,4/8,,
{4}8-4[8:1]/4,1-5[8:1],7-3[8:1],2-6[8:1],
{8}8,8,8,8,{16}1,7,1,7,1,7,1,7,
{16}2bxh[8:14]/6bxh[8:14]{4},,,,,,,{16},,,3x/7x,{16}3x/7x{8},,4/6,,,6,5,,
{8}5/7,,3/4,,,3,4,,
{8}2/4,,5,,6,6,5,,
{8}5/7,,4,,3,3,4,,
{8}2/4,,5/6,,8,8,1/7,,
{4}3/4,1/2,7/8,5/6,
{16}3h[16:3],,,4,,,2h[16:3],,,4,,,3/5,,,,
{4}6-4[8:1],3,2-8[8:1],7,
{16}6h[16:3],,,5,,,7h[16:3],,,5,,,6/4,,,,
{4}3-5[8:1],6,7-3[8:1],1,
{4}2bh[4:1]/8bh[4:1],,{8}3,3,4,4,
{8}2,2,8,8,1,1,7,7,
{8}5xh[8:2]/6x,,7,3x/4xh[8:2],,2,4x/5x<4[1:1],,Cfh[1:1],,,,,,,,,
{4},,{8},1/2,3/8,,7/8,1/6-4[8:1],,2-6[8:1],,8,,
{16}7xh[16:3],,,6h[16:3],,,5,,2xh[16:3],,,3h[16:3],,,4,,
{16}8xh[16:3],,,6h[16:3],,,5,,1xh[16:3],,,3h[16:3],,,4,,
{4}2x-5[8:1]/6x-1[8:1],,3x/7x,{8}8/7,6/1,,2/1,3/8<5[8:1],,1>4[8:1],,8b,,
{16}7h[16:3],,,5h[16:3],,,4h[16:3],,,2h[16:3],,,1,,,,
{16}3/4,,,1/8,,,5/6,,5/7,,,1/8,,,2/4,,1b/8b
E

MASTER

(180)
{1}4^1s5^8[4:11]/6h[1:3],,,{4},,1h[4:1]/7,{16}8,1,8,1,
7bh[16:3],,,5h[16:3],,,3h[16:3],,,2,,,25,,3,4,
3,,2h[8:1]/5h[8:1],,,2h[8:1]/5h[8:1],,,3h[8:1]/4h[8:1],,,3h[8:1]/4h[8:1],,,25,,
2bh[16:3],,,4h[16:3],,,6h[16:3],,,7,,,6,5,6,5,
{4}6b-1[8:1],6/2b-5[8:1],2/8b-3[8:1],8/4bq5<3[4:11],{1}4bhx[1:2],,,{4}4,5,6,57,

6h[8:1]/4x,{8}6h[8:1],5,6h[8:1],,7h[8:1],,7h[8:1],5,{4}6h[8:1],3h[8:1]/5h[8:1],26,
3h[8:1]/5x,{8}3h[8:1],4,3h[8:1],,2h[8:1],,2h[8:1],4,{4}3h[8:1],6h[8:1]/4h[8:1],73,
2^5[4:1]/6,5^8[4:1],8^3[4:1],3^6[4:1],6^1[4:1],1^4[4:1],4,5,
{8}5,5,4,4,{16}3,5,3,5,2,6,2,6,{4}1h[4:1],,1s5[8:1]/8-4[8:1],18,

1b/7b,{8}26,35,6-4[8:1],4v1[8:1],,,2x,2,{16}8,1,8,1,7,6,5h[8:1],,8,1,{8}2h[8:1],
8b,,{16}5,4,,4,{8}6-1[8:1],57,46,,{16}2,2,1,,7,7,8,,16,2,3,4,7,6,5,4,
{8}1b,,73,64,3-5[8:1],5v8[8:1],,,7x,7,{16}1,8,1,8,2,3,4h[8:1],,1,8,{8}7h[8:1],
1b,,{16}4,5,,5,{8}3-8[8:1],42,{4}53,7-3[8:1]b,1b/7b,{16}2,1,{8}2,3b/8b,,

1-6[8:1],6-1[8:1],{4}1^4-7[4:1]*^4-8[4:1],,A7/A8/D8f,
16,{16}34,,45,,6,5,6,5,{8}7bx,,8-3[8:1],3-8[8:1],{4}8^5-2[4:1]*^5-1[4:1],,A2/A1/D2f,
3x/8x,{16}6,5,6,5,7h[8:1],,,6h[8:1]/8h[8:1],,,{8}15,
2-4[8:1],4-1^2[8:1],{4}2-5-7[4:1]*-5-8[4:1],,A7/A8/D8f,1x/6x,{16}3,4,3,4,3,5,4,6,5,,46,,
3x/7x,,2,1,,1,{8}2,12,3>6[4:1],4,{2}5bx,{16}1b/7b,,2,6,3,5,4,,2,,

1-6[8:1]/2,,,5,,,4-1[8:1],,,5,,,7,,7,8,7,,16,,2,4,,4,5,,5,7,,7,8,,
8-3[8:1]/7,,,4,,,5-8[8:1],,,4,,,2,,2,1,2,,83,,7,5,,5,4,,4,2,,2,4,,
4-7[8:1]/3,,,8,,,1-4[8:1],,,8,,,6,,6,5,6,,47,,3,8,3,8,2,7,2,7,1,,1,,
{24}2b/D8,A7,D7,A6,D6,A5,D5,,,7b/D2,A2,D3,A3,D4,A4,D5,,,{4}1b/B6/B7/Cf/E7f,2b/8b,,{16}4,,,35,,,26,,

{1}1bx^4-7-2-5[2:7]/7bhx[1:5],,,,B5/B6/Ch[1:3]/E6,,8^5-2-7-4[4:7],,
{2}3b,{32}B5,E5,,,,,{16}B1/E2,,,E3,E4,{6}E5,D6/E6,D7/E7,{32}B8,E1,,,{16},,,2hx[16:3],,,
1bx,,,81,2,3,4,5,1,8,7,6,4,3,2,1,7,6,5,4,2,3,4,5,8,7,6,5,3,2,1,8,
{4}6h[16:3],{16}65,4,3,2,18,7,6,5,8,7,6,5,4,3,2,1,7,6,{4}5h[4:1],{16}2,3,8,7,6,5,
{12}42,,3,3,5,4,6h[6:1],,5,,7,7,5,6,4,{6}5h[6:1],B5/B6,B3/B4,C,{24}1x,8x,

{4}1hx[1:2],,,7<3[2:1],{1},{4}7h[1:2],,,2>6[2:1],{1},
{4}8h[1:2],,,7<3[2:1],{1},{4}1h[2:3],,,3<7[2:1],{1},
{4}5h[4:3]/7,7,6,6-3-8-5[4:3],E5,C,E2,1x,4h[4:3]/2,2,3,3-6-1-4[4:3],E5,C,E8,8x,
5b/7bh[4:1],{16}E5,B4,B3,E3,E7,B6,B5,E5,A1,E1,E8,A7,
E2,B1,B7,E7,E3,B3,B5,E6,D1,D2,D3,D4,D5,D6,D7,D8,
{1}D1/4bhx[1:1],{4}8,8,{16}1v4[8:1]/7v4[8:1],26,35,,{4}1x/7x,

{16}1b/6b,,2,4,3,6,4,5,3,4,2,,18,,7,5,6,,34,,2-5[8:1],1,,1,2,,6-1[8:1],4,,4,6,,
2b,,7,5,6,3,5,4,6,5,7,,81,,2,4,3,,38,,2-5[8:1],1,,1,2,,7-4[8:1],8,,8,7,,
1b,,2,4,3,6,4,5,3,4,2^5[8:1],,38,,{24}1x,8x,7x,{4}6bx,{16}6,4,6,4,5h[8:1],,3,4,2,5,1,,
2h[8:1]/8h[8:1],,,3h[8:1]/4h[8:1],,,56,,7,8,6,1,{4}5-1[8:1],
5b/2-5[8:1],2b/7^2[8:1],{8}7b/4-8[8:1]b,3,4b/6b,,

{16}1x/7x,,2,6,3,5,4h[8:1],,6,5,7,4,8h[8:1],,2,1,2,,38,,6-1[8:1],5,,5,6,,2^5[8:1],8,,8,2,,
6x,,7,8,6,1,5h[8:1],,2,4,3,5,4h[8:1],,7,6,2,3,8,7,1,2,7,6,1b,,,28,,,46,,
5x/3x,,6,2,7,1,8h[8:1],,2,1,3,8,4h[8:1],,6,5,6,,74,,2-6[8:1],1,,1,2b,,,7x,,,28,,
{24}7/1b,2x,3x,4x,5x,6x,1b,8x,7x,6x,5x,4x,8b,1x,2x,3x,4x,5x,8b,7x,6x,5x,4x,3x,
{8}1b,1,{24}2b/6,3x,4x,8,7x,6x,1b,2x,3x,7,6x,5x,2b-8[8:1],3x,4x,8,7x,6x,

{1}2b^4q5^7[8:9],{4},,,{16}7,8,,16,{16}1b/6b,,,3h[16:3],,,4,,,25,,,{24}B2/E3,B3,B4,E5,,,
{24}B7/E7,B6,B5,E5,,,{32}D2/E2,A2,D3,A3,D4,A4,,,D8/E8,A7,D7,A6,D6,A5,,,{4}2b/8b,
{16}47,,6,5,6,,{4}4/7^4[8:1],{24}4,3,2,{8}1x,2b/6b,,7,7,{24}7/8x,1x,2hx[6:1],{8},4,4,35,
{16}4h[8:1]/6h[8:1],,,4h[8:1]/6h[8:1],,,5h[8:1]/3h[8:1],,,5h[8:1]/3h[8:1],,,26,,26,,
1,7,1,7,2,8,2,8,{32}3,4,5,6,7,8,1,2,{4}3b/7b,

{16}46,,3,1,,1,8,,8,6,,6,5,,28,37,{4}4h[8:1]/6h[8:1],{16}7,5,6,5,7h[8:1],,,6h[8:1]/8h[8:1],,,15,,
24,,6,8,,8,1,,1,3,,3,4,,71,,71,2,3,4,5,6,7,8,{4}1^4[8:1]*^6[8:1]/5,1x,
2b/8b,{16}6,4,6,4,5,3,5,3,4,2,4,2,5,1,5,1,6,8,6,8,7,1,7,1,{4}8h[4:1],
{24}3b,4,5,6,7,8,1,2,3,4x/7b,6,5,4,3,2,1,8,7,{4}6hx[4:1]/2b,
{32}E5,E6,E7,E8,E1,E2,E3,E4,E5,E6,E7,E8,E1,E2,E3,E4,{4}B4/B5/C/E5f,1b/8b,

2-4[8:1]/7,{8}1/2-6[8:1],8,7^2[8:1]b/2,,{24}2,3,4,{8}5V37[4:1],,8,6-2-8[4:1],,4,3bhx[4:1],,,
{16}7h[8:1]/8h[8:1],,,5h[8:1]/6h[8:1],,,34,,25,,,1,1,4,3,5,2h[16:3],,,8,8,5,6,4,7hx[16:3],,,8,,,{8}18,
7-5[8:1]/2,,8/7-3[8:1],1,2^7[8:1]b/7,,{24}7,6,5,{8}4V62[4:1],,1,3-7-1[4:1],,5,6bhx[4:1],,,
1b/8b,{16}2,1,3,8,4,7,5,6,4,5,3,4,3,4,2,2,6,6,4,4,8,8,2b,1,3,7b,8,6,{32}4,3,2,1,
{1}8b^3q5[2:7]b/5b^8q2[2:7]b,,,,E

Re:MASTER


  • 追加しました。修正等ありましたらよろしくお願いします。 -- けもがみ (2025-04-27 06:19:18)
  • CiRCLE ver.にて、MASTER譜面の{24}2,6,,→{16}2,6,、1b,2,3,→1b,2x,3x,の箇所の修正が行われたため、修正後の譜面に修正しました。 -- けもがみ (2026-05-17 12:41:33)
名前:
コメント:

タグ:

+ タグ編集
  • タグ:
最終更新:2026年05月17日 12:41