BASIC
ADVANCED
EXPERT
MASTER
(155)
{16}25,,3,4,,,4h[4:1],,3,,{4}3,{16}35,,74,,6,5,,,5h[4:1],,6,,6,,{4}78,
{16}61,,7,8,,,8h[4:1],,7,,{4}7,{16}71,,38,,2,1,,,1h[4:1],,2,,2,,{4}38,
{16}2h[8:1],,1,2,,,{8}18,7h[4:1],5,5,46,{16}7h[8:1],,8,7,,,{8}81,2h[4:1],4,4,53,
{16}2h[8:1],,1,2,,,{8}18,7,78,61,,{12}2,2,2,6,6,6,{4}4b-8[8:1],5b,
{4}7xV58[2:1],,B4,B5,2V41[2:1],,B5,B4,7V16[2:1],,B1,B5,4V25[2:1],,E6,A7,
{8}6-2^1-5[2:1]/5,4,{4}3,B4,D3,{8}3-7^8-4[2:1]/4,5,{4}6,B5,D7,
{12}3,4,2,6,5,7,3,4,1,6,5,8,{4}1x>6[4:1],6,7v5[8:1],,
{8}4,3,21,3,{4}1^6[8:1],15,{8}5h[4:1],8,7,6,{4}5-3[8:1]/6,57,
{8}6,7,71,6,{4}8^3[8:1],84,{8}6,6,4h[2:1]/7,8,{4}1-5[8:1],1,
6x/A3/E4/A4,8x/A3/E4/A4,1x/A3/E4/A4,7x/A3/E4/A4,
3x/A6/E6/A5,1x/A6/E6/A5,8x/A6/E6/A5,2x/A6/E6/A5,
{24}3,,3,5h[8:1],,,4,,4,6h[8:1],,,5x,6,7,8,1,2,3,4,5,6,7,8,
{2}1bx/Cf,{24}D3,A3,D4,A4,,,D7,A6,D6,A5,,,
{16}3x/4x,,1/8^3[8:1],,7,7,8-4[8:1],,6,6,{8}8,7x,6x,3,3h[4:1],1,5h[4:1],8,4h[4:1],8,7,
{16}56,,7/8^3[8:1],,1,1,8^5[8:1],,4,4,{8}8,3x,2x,1h[8:3],D4,D5,D6,78,{16}6,5,6,,47,,
{16}65,,8/1^6[8:1],,2,2,1-5[8:1],,3,3,{8}1,2x,3x,6,7-5[8:1],5-3[8:1],3-1[8:1],{4}1,A8/B8/E8,
{16}56,,3^6[8:1]/4,,2,2,3-7[8:1],,1,1,{8}3,2x,4x,{16}6,5,{8}6,34,34,18,18,3b/6b,,
{24}2,,2,1,,3,,,5,4,,,7,,7,8,,6,,,4,5,,,{8}2^4[8:1],4^6[8:1],6^8[8:1],8^2[8:1],{4}2x,B1/B8/E1,
{24}6,,6,5,,7,,,1,8,,,3,,3,4,,2,,,8,1,,,{8}7-4[8:1],2-5[8:1],7,2,{24}8x,1,2,3,4,5,{4}6x,
{24}7,,7,8,,6,,,4,5,,,2,,2,1,,3,,,5,4,,,7,,7,5,,5,6,,6,4,,4,5,,5,{8}3,2x/4x,2x/4x,
{24}5,6,7,8,1,2,3,4,5,6,7,8,1/A4,A3,A2,A1,A8,A7,A6,A5,A4,A3,A2,A1,{1}B1/B2/B7/B8/E1/Cf,
{4}3q7[4:1]/8,7V13[4:1],3v8[4:1],8V25[4:1],5v2[4:1],6,{8}8,8,{4}1x/7x,
8q4[4:1],4-6^7[4:1],7q3[4:1],3qq1[4:1],1>5[4:1],5,{8}1,1,{4}8x/2x,
4q8[4:1],8^3[4:1],3q8[4:1],8q5[4:1],5qq7[2:1],7,{8}8,8,{4}1x,
2q6[8:1],1-4^5[8:1],8q6[8:1],7>3[4:1],3<7[4:1],7,{8}1x,1x,A3/B3/E3/A7/B7/E8,,
{2}4V68[8:1]/5-7[8:1],5V31[8:1]/4-2[8:1],4V68[8:1]/5^7-1[8:1],{8}2hx[4:1]/3hx[4:1],,,1b/4b,
{4}1-7[8:1],5-7[8:1],4-7[8:1],3-7[8:1],2-7[8:1],4-7[8:1],{8}1,1,2,3b/6b,
{2}5V31[8:1]/4-2[8:1],4V68[8:1]/5-7[8:1],5V31[8:1]/4^2-8[8:1],{8}7hx[4:1]/6hx[4:1],,,8b/5b,
{4}3<7[4:1],7V53[4:1],3>7[4:1],7V13[4:1],{4}Ch[2:1],,B1/B8/E1,2b/7b,
2h[2:1]/4h[2:1],,,24,3q4^5[2:1]/5,,,6,7h[2:1]/5h[2:1],,,75,6p5^4[2:1]/4,,,3,
4x/A2/E2/A1,6x/A2/E2/A1,5x/A2/E2/A1,6x/A2/E2/A1,
3x/A7/E8/A8,5x/A7/E8/A8,6x/A7/E8/A8,5x/A7/E8/A8,
{24}7,,7,5,,5,6,,6,4,,4,5,,5,3,,3,4,,4,2,,2,
{2}3bx>5[4:1]b,{24}A8,E1,E2,A2,,,A4,E5,E6,A6,,,
{8}3bx/7bx,3hbx[4:3]/7hbx[4:3],{4},,,{16},6,5,,18,,1/8h[8:1],,{24}2,3,4,5h[4:1],,,6,7,8,1,,,
{16}1b/5b,,3b/7b^4[8:1],,8,8,7p3[8:1],,1,1,{8}7,2x,3x,45,6,78,12,38,{16}2,1,2,,3,,
47,,5-8[8:1]/6,,8,8,5^2[8:1],,6,6,{8}5,8x,7x,64,5^3[8:1],3^1[8:1],1^7[8:1],{4}7,E1/E2,
{16}25,,3^6[8:1]/4,,2,2,3-7[8:1],,1,1,{8}3,2x,4x,{16}6,5,{8}6,78,78,12,12,3b/8b,,
{24}2,,2,4,,1,,,5,3,,,7,,7,5,,8,,,4,{8}6,2^5[8:1],1v6[8:1],2,1,{24}3,2,1,8,7,6,5,4,3,2b/6b,,,
7,,7,5,,8,,,4,6,,,2,,2,4,,1,,,5,{8}3,8x^5[8:1],8x^3[8:1],8x-4[8:1],8x,{4}8x,3b/5b,
{24}2b,1,8,7,6,5,2b>7[4:1]b,1,8,7,6,5,{2}2bx,{24}7b,8,1,2,3,4,7b<2[4:1]b,8,1,2,3,4,{2}7bx,
{24}3b,4,5,6,7,8,2b,3,4,5,6,7,1b<4[16:3]b,2,3,4,5,6,{4}1bx,
3hbx[4:3]/7hbx[4:3],,,{48}D4f/D8,A4/A8,D5/D1,A5/A1,D6/D2,A6/A2,,,,,,,
{16}6h[2:1],,5,5h[16:5],{8},,,5x/6x,,4x/5x,{16}3h[2:1],,4,4h[16:5],{8},,,4x/3x,,2x/4x,
{16}2h[2:1],,4,4h[16:5],{8},,,2x/4x,,4x/5x,{16}7h[8:3],,5,5h[16:3],{8},,5x/7x,6,2x/5x,,
{16}3h[8:1]/4h[8:1],,,2,1,,18,,,7,8,,56,,47,,6h[8:1]/5h[8:1],,,7,8,,81,,,27,27,,18,,18,,
{24}7bx,5,6,5,,,2bx,4,3,4,,,1bx,8,1,{8}8,2x/7x,,
{12}1b/2b,12,12,3b/8b,38,38,{4}4bV28[8:1]/7bV53[8:1],4b/7b-3[8:1]b,
7bx,{1}8hx[4:15],{32}2x,3x,{1}4hx[16:43],,,,E
Re:MASTER
- 追加しました。修正等ありましたらよろしくお願いします。 -- けもがみ (2025-04-29 01:17:17)
最終更新:2026年04月12日 13:48