BASIC
ADVANCED
EXPERT
MASTER
(150)
{2},{24}A2,D3,A3,D4,A4,D5,{4}A5,
{16}35,2,1,8,7,6,3,2,1,8,7,6,3,2,1,8,7,6,3,2,1,8,7,6,3,2,1,8,7,6,5,4,
37,6,5,4,3,2,7,6,5,4,3,2,7,6,5,4,3,2,7,6,5,4,3,2,7,6,5,4,3pp6qq3[1:3],2,1,8,
{8}7hx[4:1],,,8h[4:1],,,1h[4:1],,,2h[4:1],,,1,,8,,
7h[4:1],,,8,,1,1,,2,2,2,{16}1,1,{8}1-5[8:1]b,28,1b,,
8hb[4:1],,{16}5,,5,6,5,,5,7,5,7,{8}5,56,5/7h[4:1],5,5,{16}5,6,{8}5,57,5,
5/E7,5/E8,5/E1,5/E2,5/E3,5,{16}5,1,{8}5,5/2h[8:1],5,5/8h[8:1],5,56,,A6/A7/B5/B6/B7/E6/E8,,
1hb[4:1],,{16}4,,4,3,4,,4,2,4,2,{8}4,43,43,42,42,41,41,48,{16}48,1,
{8}42,4,4/E2,4/E1,4/E8,4/E7,{16}4,5,{8}4,4/7h[8:1],4,4/1h[8:1],4,43,,2/8-4[8:1]b,28,
1b>5[8:5],,6,6,7,7,8,8,{4}8-4pp4[8:5],3h[4:1],,2,
1pp5[2:1],6h[4:1],,7,8v3[8:3]*v5[8:3],,,{16}2-5[8:1]/6-1[8:1],37,,,
{4}2b/6b,8<4[4:1],4>8[4:1],8,4-7-3-8[2:1],2h[4:1],,
4,5-2-6-1[2:1],7h[4:1],,5,5V71[4:1],1V35[4:1],5,{8}1,1,
2b>6[4:1],,7,8,1V35[4:1],,6,7,8>4[4:1],,5,6,7V13[4:1],,4,5,
6<2[4:1],,3,4,5V71[4:1],,2,3,{4}4-2[8:1]*-6[8:1],4-8[8:1],,A3/B1/B2/B3/B4/E2/E4,
8q4[4:1],7,6q2[4:1],5,4q8[4:1],3,2q6[4:1],1,
8b-4[8:1]b,7b-3[8:1]b,6b-2[8:1]b,5b-1[8:1]b,4b,3b-6[4:1]b*z7[4:1]b,,,
2-6[8:1]/6-3[8:1],2qq4[4:1]/6,{8}4,5pp7[8:1],{2}5qq3[8:1],{8}7^4[8:1],8v3[8:1],7,8,,4,
{4}5-7[8:1],5-3[8:1],5^8[8:1],5^2[8:1],{8}6,7,8^5[8:1],2^5[8:1],8,2,1-5[8:1]b,,
1b,,7-3[8:1],5,3,1w5[8:1]b,7,1b,,4x/6x,4x/6x,,3-1[8:1]/7-1[8:1],5/C,,,
{16}2x,3,2,3,1x,4,1,4,8x,5,7,6,8x,5,1,4,2x,3,2,3,1x,4,1,4,8x,5,7,6,8x,5,1,4,
{8}2b>6[4:1],,8v5[8:1],{2}8v3[8:1],{8}8,2,4,5^8[8:1],3v8[8:1],5b,3b,,5,
{4}4qq2[8:1],4pp6[8:1],4^1[8:1],4^7[8:1],{8}3,2,1^4[8:1],7^4[8:1],1,7,8-4[8:1]b,,
8b,,2-6[8:1],4,6,8w4[8:1]b,2,8b,,3x/5x,3x/5x,,2qq8[8:1]/4^7[8:1],3/C,,,
{16}1<5[8:3],,,1h[16:3],,,,,1>5[8:3],,,1h[16:3],,,,,
{8}7b,,7h[16:1],7h[16:1],4h[16:1]/6h[16:1],4h[16:1]/6h[16:1],3h[16:1],3h[16:1]/5h[16:1],
2-6[8:1]/6-2[8:1],,26,,4-8[8:1]/8-4[8:1],26,48,,2-6[8:1],1,6-2[8:1],7,4v1[8:1]*-8[8:1],5,,,
3-7[8:1]/7-3[8:1],,37,,1-5[8:1]/5-1[8:1],37,15,,7-3[8:1],5,3-7[8:1],2,5,5,1-4[8:1],4-1[8:1],
1-6[8:1],6-2[8:1],8-5[8:1],8-3[8:1],8-4[8:1],,8,,{16}3,5,4,5,2,4,3,4,1-5[8:1],4,3,4,{8},,
1q5[8:1]/7-2[8:1],,17,,2v5[8:1]/6v5[8:1],8,,,{16}3,4,4,4,2,4,4,4,1-5[8:1]*-7[8:1],4,4,4,{4}1-4[8:1],
1b/6h[4:1],{16}5x,7,5,7,5x,8,5,8,5x,1,4,1,{4}3h[4:1],{16}4x,2,4,2,4x,1,4,1,4x,8,5,8,
{4}6h[4:1],{16}8x,5,8,5,8x,4,8,4,8x,3,1,3,{4}2h[4:1],{16}1x,4,1,4,1x-5[8:1],5,1,5,{8}1xw5[8:1]b,,
1b,,7^2[8:1],5,3-8[8:1],5-7[8:1],,,1,,2^7[8:1],4,6-1[8:1],4-2[8:1],,,
8,,6^1[8:1],5,3-8[8:1],4,7-4[8:1],6,2^5[8:1],8,7^4[8:1],1,3b,1b,7b,,
3bh[4:1]/8b,,{16}1,4,2,4,31,28,17,86,75,,6,6,6,,8,8,8,,1,1,8,7pp2[16:7],6,5,,5,,,{4},{16},
8,1,8,{12}3-8[8:1],3,3,6-1[8:1],6,6,3,4h[6:1],,{16}1,8,7,6,4,3,2,1,{8}8x,5x,
47,25,{16}4,3h[8:1],,4<8[16:3],,12,,3,,,3,4,5,,8,,7h[16:3],,,5,,6,7,8,4,3,2,1,
8x,5,8,5,8x,4,8,4,8x,5,8,6,8x,5,8,4,8x,3,8,2,8x,1,8,7,8x,6,8,5,8x,4,8,3,
{4}7bp4[2:1],,,{8},3,{4}3v5[4:1],5w1[8:1],,{8},1,
{4}1,28,5b/7b,3bq5[2:1]/5b,,,{8},8x,8x-3[8:1]*-4[8:1],,
8b,,1-5[8:1],,1b/6,7-3[8:1]*-4[8:1],,7b,,2x/5x,2^5[8:1]/5^8[8:1],,2/5qq4[8:1],,7h[4:1],,
{16}6x,7,6,7,5x,8,5,8,4x,1,3,2,4x,1,5,8,6x,7,6,7,5x,8,5,8,4x,1,3,2,4x,1,{8}4,
5-8[8:1]/8-5[8:1],67,5/8>5[4:1],,6,6,,2,1-4[8:1]/4-1[8:1],23,1/4<1[4:1],,2,2,,8,
8^5[8:1],5-1[8:1],1^4[8:1],4-8[8:1],,,1h[4:1],,4^1[8:1]*^7[8:1],4,4-8[8:1],,4,2,1-5[8:1]b,,
1b/6,,7-3[8:1],5,3,1w5[8:1]b,7,1b,,4x/6x,4x/6x,,5^2[8:1]/7pp1[8:1],6/C,,,
{16}8>4[8:3],,,8h[16:3],,,,,8<4[8:3],,,8h[16:3],,,,,{4}2b,E2/E7,E4/E5,{16}2,2,4,,
35,,,57,,,13,,,46,,,{8}B2/B3,B6/B7,B4/B5,{16}C,C,C,C,C,C,{8}1-3[8:1],1,7,8-6[8:1],
8,5,{32}5,4,3,2,{8}15,3>7[8:1]/7,5,,{16}4,4,1V35[8:1],,2,4,,7,8V64[8:1],,7,5,,2,1w5[8:1],,28,{1}1x,,,,E
Re:MASTER
- 追加しました。修正等ありましたらよろしくお願いします。 -- けもがみ (2025-05-13 15:22:25)
最終更新:2026年04月11日 22:05