アットウィキロゴ

FLΛME > FRΦST

アーティスト FANTAGIRAFF

BPM BASIC ADVANCED EXPERT MASTER Re:MASTER
174 5 8 12+ 14+ -

EXPERT MASTER Re:MASTER
譜面制作者 はっぴー SΛFΛRI/RΦCHER -

BASIC


ADVANCED


EXPERT

(174){4},,B3/B4/B6/B5,,Ch[1:2],,{1},,{4},,{1}1x-5[2:1],{4}7h[2:3],,5,4,5,4,3h[2:1],6,{8}7,7,5,5,8,8,6p4[8:5],,{1},{4}2h[2:3],,4,5,4,5,6h[2:1],3,{8}2,2,4,4,1,1,3-1-5-7[8:5],,{4},,,8bx,

{8}2,2,3/5,,5/7,,2/4,,4/6,4/6,3<6[4:1]/7>2[4:1],,,,,,8,8,1/7,,2/4,,5/7,,3/5,3/5,2/6,,3h[8:1]/7h[8:1],,2bh[8:1]/6bh[8:1],,{4}3>8[4:1]/4p7[4:1],,,7x/8x,6<1[4:1]/5q2[4:1],,,2x/1x,3V17[4:1],4v6[4:1],,7x,6V82[4:1],5v3[4:1],,2x,1bh[8:1]/2bh[8:1],2h[8:1]/4h[8:1],4h[8:1]/7h[8:1],5x/6x,8>3[4:1]/7q4[4:1],,,3x/4x,2V46[4:1],1v7[4:1],,6x,7b/8b,3b/4b,{16}6,5,6,5,7b,,,,

{4}5/6,{4}3/4,{16}2/5,,,3/6,,,4/7,,7/4,,,6/3,,,5/2,,{2}2-8[8:1]/5-7[8:1],{4}1x/6x,5/6,{16}7/4,,,6/3,,,5/2,,2/5,,,3/6,,,4/7,,{2}7-1[8:1]/4-2[8:1],{4}8x/3x,1/2,{16}3/8,,,2/7,,,1/6,,6/1,,,7/2,,,8/3,,3/8,,,2/7,,,1/6,,{4}1/6-8[8:1],2-4[8:1],5-1[8:1],3x,{8}2,2,4,4,5,5,7<1[2:3],,

{1}Cf,,2h[2:3],4h[2:1],{16}5,,,4/6,{8},,,,,{16}3/7,,,,,2/5,,,1/4,,{8},,3/4,3/4,5,6,7,8,1,2,3,4,7h[4:1]/5,,5x,2h[4:1]/4x,,4x,1/5x,,

{8}2/7,,2-5[8:1]b/6-1[8:1]b,2/6,,,4x/8x,,{4}5h[8:1]/7h[8:1],4h[8:1]/6h[8:1],3h[8:1]/5h[8:1],2h[8:1]/4h[8:1],{8}1,1-4[8:1],,7,7-5[8:1],,2,2-4[8:1],,8,8-5[8:1],,1,1V35[4:1],,,Ch[4:1],,,,E2/B2/E3/E8/B7/E7,,8x,8x,8x,3x,3x,3x,{16}4/6,,,4/6,,,3/7,,3/7,,,,{8}2/4,1,8,7/5,8,1,2/4,2/4,,7/5,7h[4:1]/5h[4:1],,,,

{16}1x/6x,,,,7b/8b,,,8b/1b,,,1b/2b,,,3b/4b,,,6b/5b,,,7b/8b,,,3b/4b,,,1bh[16:3]/2bh[16:3],,,,,,,{16}8x/3x,,,,2b/1b,,,1b/8b,,,8b/7b,,,6b/5b,,,3b/4b,,,2b/1b,,,6b/5b,,,7b/8b,,,1b-5[8:1]/8b-4[8:1],,,,{2},{16}4,5,4,5,4,5,4,,{4}1x/3x,6x/8x,{16}2,4,2,4,2h[4:5],,,,

{1}Chf[1:7],,E3,E2,E1,E8,E7,A8/A1/D1,{4}2h[2:1],8h[2:1],,5-2[8:1],7-4[8:1],1-6[8:1],3-8[8:1],5-2[8:1],7-4[8:1],1-6[8:1],3-8[8:1],5-2[8:1],7-4[8:1],1-6[8:1],3-8[8:1],5q8[2:1],,,,

{8}1xV35[8:1]b,,,,7-4[8:1],7,3,,2,,{16}2,1,2,1,3,8,3,8,4,7,4,7,5,,,,{8}3b/5b,,2>5[8:1],2,6,,7,,{16}7,8,7,8,6,1,6,1,5,2,5,2,4,,,,{8}6b/4b,,7<4[8:1],7,3,,2,,{16}2,8,2,8,3,7,3,7,4,6,4,6,5,,,,{12}7,7,7,5,5,5,4,4,4,2,,,{4}3x-8[8:1],7-4[8:1],1hx[4:1],{8}5xV71[8:1]b,,,,3-8[8:1],3,5,,6,,{16}6,5,6,5,7,4,7,4,8,3,8,3,1,,,,{8}5b/3b,,6<1[8:1],6,4,,3,,{16}3,4,3,4,2,5,2,5,1,6,1,6,8,,,,{8}4b/6b,,3>8[8:1],3,5,,6,,{16}6,4,6,4,7,3,7,3,8,2,8,2,1,,,,{12}3,3,3,1,1,1,8,8,8,6,,,{8}7bxp3[8:1],,,1bxq5[8:1],,,8b,,

{8}8,7,6,5,4,3,2,1,2,3,4,5,6,7,8-3-6-1[4:3],,{4},,,3bx,{8}2-6[8:1],2,8-4[8:1],8,1-5[8:1],1,7-3[8:1],7,2-5[8:1],2,8-4[8:1],8,3,3,5,5,{12}3x,4,5,3x,4,5,3x,4,5,3x,4,5,{4}3b>4[1:5],8bhx[1:5],E

MASTER

(174)
{2},B4/B5/Ch[4:1],{1}8xz4[2:3]`1xs5[2:3]b,,
{16}35,,,3h[4:1]/5h[16:3],,,,,6h[16:5],4h[4:1],{8},,,{1}4xp5[12:7]/5x<4[12:7],
{2}D5/E5f,{16}5,,,4/6h[16:9],{8},,2,3,4h[4:1],,{16}5,5,,4h[16:3]/6h[16:3],{4},
5h[8:1]/7h[16:3],4h[8:1]/6h[16:3],3h[8:1]/5h[16:3],{8}2/4^7[4:1],3,{2}2q5[8:3],{16}1x,,,8,,,7,,
{4}5/6V82[4:1],E5,3V57[4:1],C,{8}1,1,1,28,37,26,1/5h[4:1],,2,{16}2,3,4,,4,5,6,,47,,1,2,1,2,
{8}1-7[8:1],1-4[8:1],1xqq5[4:1],1x,1x,,{48}2b,3x,4x,{16},,,

45,,3,4,{8}2-4[8:1],1,2-6[8:1]/8,8,28,8,{16}7,5,7,5,{8}6-1[8:1]*-8[8:1],57,{2}6-3[8:1]*-4[8:1],
{16}25,,3,4,{8}2-4[8:1],1,2-6[8:1]/8,8,8,8,{16}7,5,7,5,6,,1,1,8,8,2,2,{8}B6/B7,B2/B3,
{2}1-5[8:1]/8p3[8:1],{16}4h[8:1]/6h[8:1],,,4h[8:1]/6h[8:1],,,{8}46,7v2[8:1],8s4[4:1],{4},1-5[8:1],,
{8}8>5[4:1],7,{4}6V82V46[2:1],,,1x,{16}2,2,5,5,{4}3-7[8:1],6^8[16:1],
{32}E4,B3,{16}B2,,,8,8,1,1,{4}7-3[8:1],78,{8}2v8[8:1],6z2[4:1],{4},1-5[8:1],1,
{8}8-3[8:1],7,6-1[8:1],5,4,,2x/8x,,3bx/6bx,{32}E4,B4,B5,E6,{8}C,8x,{16}A2,A7,B3,B6,{4}1b-5[8:1],

1b/8h[4:1],{24}4,37,26,{8}15,5,{16}5,3,{8}5,25,46,{16}6,5,{8}6,26,1b/7b,{16}6,5,{8}8-4[8:1],3,
8b/1h[4:1],,{24}5,62,73,{8}84,4,{16}4,6,{8}4,74,53,{16}3,8,{8}3,34,2b/6b,{16}3,5,{8}1-5[8:1],6,
1b/8h[4:1],,{24}4,37,26,{8}15,1,{16}1,3,{8}1,14,58,{16}8,7,{8}8,58,1b/4b,{16}1,3,{8}1,24,
34,{16}7,5,6h[8:1],,2,4,3h[8:1],,6,5,7h[8:1],,4,5,
{8}3,24,1-3[8:1]/5-7[8:1],48,{4}1-5[8:1]/5,1x/5>8[4:15],

{1}B6/B7/E7f,,{4}6x,6hx[2:1],,,{1}6h[4:3],{16}1h[8:1]/7h[8:1],,,2/6h[16:5],,,,,{8}4h[2:1],,,3,
{2}3<8[2:1],3-5[8:1],{8}28,28,37,37,46,46,5,46,3b/7b,{16}6,5,4,,2b/6b,,3,4,5,,{4}B3/B4/B6/B7/E4/E7f,

{16}2b/8b,,1,1,1,,28,,1b,1,{8}1,37,37,
46,{16}2x,4,2,4x,3,4,3bx,4,2,4,{48}A1,D1,A8,D8,A7,D7,A6,D6,A5,D5,A4,D4,
{16}A3/8bx,,1,1,1,,28,,1,1,1,,38,,1,1,1,,48,,1,1,1,,{24}8,7x,6x,2,3x,4x,{12}1s5[8:1]b,2x/8x,2x/8x,{4},
A4/A6/B6f/D4/E4/E7,3/7hx[4:1],{16}1,,8,8,
8,,7,1,7,1,6,1,{16}7/E2,,,3/E8,,,6/E5,,{48}A8,D1,A1,D2,A2,D3,A3,D4,A4,D5,A5,D6,
{16}A6/1bx,,8,8,8,,26,,4,4,4,,5,5,5,5,5^2[8:3]b,5^8[16:5],5,5,{2},

{4}1b-5[16:1]b,{16}1/7b-3[16:1]b,,,2b-5[16:1]b,,,8b-4[16:1]b,,,1b-6[16:1]b,,,
7b-5[16:1]b,,,4b-8[16:1]b,,,1b-3[16:1]b,,,7b,,,4,5,6,7,
{4}8b-4[16:1],{16}8/2b-6[16:1],,,7b-4[16:1],,,1b-5[16:1],,,8b-3[16:1],,,
4b-1[16:1],,,6b-2[16:1],,,8b<3[4:1],,{2},
{48}D1f/E1,A1f,D2f/E2,A2f,D3f/E3,A3f,D4f/E4,A4f,D5f/E5,A5f,D6f/E6,A6f,D7f/E7,A7f,D8f/E8,A8f,,,,,,,,,
{16}1,1,1,1,1-3[8:1]*-4[8:1],1,1,1,{4}1b-6[8:1]*-7[8:1],1b,{16}1,1,8,8,{4}1x-4[8:1]`8x-5-8[4:17]b,

{1}1b,,4h[4:7],,{8}4,,3h[8:3],,,4,25,,4,4,2/5h[8:3],,,4,25,,4,4,2/5h[8:3],,,4,25,,
{16}6/D2/E2,,,3/D8/E8,,,,,6,57,,3,24,,,,7,3,5,2,6,4,8,,1-6[8:1]/5-2[8:1],1h[8:1]/5h[8:1],,,{4},
3bh[8:1]/7bh[8:1],4bh[8:1]/6bh[8:1],5bh[8:1]/7bh[8:1],6bh[8:1]/8bh[8:1],
1bh[8:1]/7bh[8:1],2bh[8:1]/4bh[8:1],5bh[8:1]/7bh[8:1],3b/4h[4:3],
{8}5,5,5,5,{16}5,4,5,4,5p1[2:1]b,4,5q1[8:3],4,{4},,,{16}1/8x^3[8:1]b,7,6,5,

{8}4b^7[8:1]/8b,,48,{24}8,1,2,{8}3,34,2b/5b,47,{16}6,5,7,4,8,7,6,5,3,4,2,5,1-6[8:1],2,3,4,
{8}1b^4[8:1]b/5,,15,{24}5,6,7,{8}8,38,5b/6b,34,{16}2,1,3,8,5,6,3,4,8,7,1,6,3,5,4,6,
{8}5/7^4[8:1],,78,{24}8,1,2,{8}3-8[8:1]b,5,3b/6,6,{16}17,2,3,4,51,6,7,8,15,2,3,4,56,,56,,
{12}38,2,1,47,6,5,16,8,7,2b/5b,3,4,{16}2,1,2,8,2,7,2,6,
{32}E3,E4,E5,E6,E7,E8,E1,E2,D3,D4,D5,D6,D7,D8,D1,D2,

{8}A2/A3/D3/E3f/5bx,,28,{24}28,3,4,{8}5>1[8:1]b,37,5b/6,7,
{16}7,8,6,1,5,6,7,8,2,1,3,8,4-8[8:1],3,2,1,
{8}4b^1[8:1]b/8,,47,{24}7,6,5,{8}4<8[8:1],26,3/4b,2,
{16}2,1,2,1,2h,3,4/1h,8,7/3h,4,5/8h,7,6h/1-5[8:1]b,2,3/7h,6,
{8}5/1b,,2-6[8:1]/6,{24}6,7,8,{8}1/2^5[8:1]b,1,2b/8,8,
{16}7,5,6,3,1,2,8,5,47,36,25,14,83,2,1,8,
71,,{24}1b/7b,2b/6b,3b/5b,{8}4bq8[8:1],26,{16}1^6[8:1]b,2,3,4,{8}5bw1[8:1],,
5b,,,3b/7b,{24}37,8,1,2,3,4,5bx/8b-4[8:1]b,1,2,3,4,5,

{4}6bx/8b,2-4[8:1]b/6-8[8:1],2-8[8:1]/6-4[8:1]b,2-5[8:1]b/6-1[8:1],
26,47,{32}6,5,6,,,,3,4,3,,,,5<1[32:13]b,1>5[8:3],5,,{4},,{8},{48},,,,,B1/B5,{4}C,
{16}7,8,7,8,6,1,4,3,7,5,1,2,6,8,5,3,7,4,5,2,6,1,6,1,{32}6,5,4,3,2,1,8,7,{4}6bx/2b,
{12}37,37,37,37,{24}8,2,8,2,8,2,8,2,1,1,1-5[8:1]b,1,1,1,,,
{4}A1f/7bx-3[8:1],3bV57V16[16:75]b/7bx,,{24},,,,1,2,{1}3V14[4:11],,,,,E

Re:MASTER


  • 追加しました。修正等ありましたらよろしくお願いします。 -- けもがみ (2025-05-13 15:07:47)
  • EXPERT譜面を追加しました。修正等ありましたらよろしくお願いします。 -- Sugar (2026-02-16 21:51:16)
名前:
コメント:

タグ:

+ タグ編集
  • タグ:
最終更新:2026年06月09日 05:57