BASIC
ADVANCED
EXPERT
(205){4},,,,,,,,{8}3,3,4,,2/5,,,,{12}E2,,E3,,E4,,E5,,,,,,{8}6,6,5,,7/4,,,,{12}E8,,E7,,E6,,E5,,,,,,{8}4/5,,,,3/6p4>5[4:12],,,,(180){4},,(165),,(160),,(125),,(129),Ch[4:4],,,,(118)8h[8:11],,,,,{8},
(244)1bx,,1/8,,2,2,,3/4,,2,,1/8,,7,,5/6,,4,4,,7,7,,5/6,,4/5,,3/4-8[8:1],,,,1,,7,7h[4:1],,8,8,,1/8,,2,2h[4:1],,1,1,,1/8,,7,7h[4:1],,8,8,,8/1,,7,7xv1[4:1],,,,,,2,2,1,,3,3,4,,6,6,5,,7/8,,6,6hx[4:1],,8,8,,1,1,,2x/7x,,1x/8x,,7x/8x,,1x/8x,,1bx/2bx,,,2,2,1,3>8[4:1],,,,,,,6,6,,7/8,,6,6,,7/8,,7/8,,2/1,,2/1,,3/7,,,,{4}2h[2:3],,E4,,E3,,E2,,7h[2:3],,E8,,E7,,E6,,{4}4,3,5,6,2,1,7,8,2pp1[4:5]/7qq8[4:5],,,,,,,,2h[4:1],4,7h[4:1],5,1/8,1b/8b,,,
{8}3b/5b,,7/8,7/8,,4/6,,1/2,,4,4,,3/5,,3/5,,6b/4b,,2/1,2/1,,5/3,,8/7,,5,5,,6bx/4bx,,,,3h[4:1],,1,1h[4:1],,8,8,,6h[4:1],,8,8h[4:1],,1,1,,2,2,1/3,,7,7,8/6,,1bhx[4:1]/5bhx[4:1],,,,3bhx[4:1]/7bhx[4:1],,,,4/6,,5,5,,6h[4:1],,8h[4:1],,7,7,,1/2,,8/3-6[8:1],,,7-2[8:1],,,4>5[1:1],,1x,1x,,,,,,,,,C,,,,{12}1x/7x,,1x/7x,,1x/7x,,{8}1x/7x,,,,3/5,,,,2,2,4,4,3,3,5,5,4,4,5,,2x/7x,,,,{12}1b/8b,,7,,6,,4b/5b,,3,,2,,{1}1bpp4[4:10]/8bqq5[4:10],,,,{4}D5,D6,D7,D8,D1,D2,D3,D4,B5/E6,B7/E8,B1/E2,B3/E4,C,,,,
{4}8hx[4:1],,,,8hx[4:1],,,,1hx[4:1],,,,1hx[4:1],,,,{4}2,1/2,7,8/7,{8}2,2,1x,,7,7,8x,,{4}Ch[1:1],,,,B2/B3/B6/B7,,1/8,,{8}7/8,,4/5,,1/2,,1/8,1/8,,7,7,7,7,,6/8,6/8,,2,2,2,2,,3/1,3/1,,4x/5x,4x/5x,,{16}4,5,4,5,{8}4b,,6,6,5,,7,7,8,,2,2,1,,3,3,4,,{16}2/7,,,,1,8,1,8,1,8,1,8,{4}1,{16}2,7,2,7,2,7,2,7,2,7,2,7,{4}2-6[8:1],,,,,
{8}5/6,,3/4,,1/2,1q8[16:5]/2>7[16:5],,,,,,,1/6,,1/6,,8/7,,2/1,,4/3,4p5[16:5]/3>6[16:5],,,,,,,4/7,,4/7,,5/6,,7/8,,7,7h[4:1],,5h[4:1],,4,4,,1/3,,2,2h[4:1],,4,4,,3/5,,3/5,s,4/6,,3/7,3/7,,5/1,5/1,,4/3,,6/5,,8/7,8p1[16:5]/7<2[16:5],,,,,,,8/3,,8/3,,1/2,,7/8,,5/6,5q4[16:5]/6<3[16:5],,,,,,,2/5,,2/5,,3/4,,5/6,,1/8,1/8,,3/6,,,2-4[8:1],,8-6[8:1],,1-5[8:1],,8,,7,,4/6,,2/5,,3,3,1,1,8,8,6,,3b/5b,3b/5b,3b/5b,,,,,,
{8}2/8,,2/8,,6/7,,3/5,,1/2,,7/8,,2/6,2/6,2/6,,7/1,,7/1,,3/2,,6/4,,8/7,,2/1,,7/3,7/3,7/3,,6-1[8:1],,2-5[8:1],,8<5[8:1],,4,,3-8[8:1],,7-4[8:1],,1>4[8:1],,5,,6,6,4,4,5,5,3-1[8:1]*-8[8:1],,,,7-4[8:1]*-5[8:1],,,,3x,,2/4,,3,3h[4:1],,1h[4:1],,8h[4:1],,6,6,,7/8,,1/6,,2/5,,3,3,,4/5,,3/6,,(215)4/5,4/5,4/5,4/5,4/5,4/5,,{16}E4,E3,E2,E1,E8,E7,E6,E5,A4,A3,A2,A1,A8,A7,A6,A5,
(205){4}A4/Cf,,,,,,4,4,3<6[4:3]/5,,,,,,7,7,8-2[4:1]/7-5[4:1],,,,3-1[4:1]/4-6[4:1],,,,2x/7x,,(215)1/8,2/7,(200){12}3,5,3,5,3,5,3,5,3,5,3,5,(180)4,6,4,6,4,6,4,6,4,6w2[1:1],4,,(130),,,,,,,,,,,,,(155),
(266){8}2-5[8:1],,8-4[8:1],,1,1,,2-5[8:1]/6-1[8:1],,,,7-4[8:1]/3-8[8:1],,,,2/6,,4,4h[4:1],,2,2,,1/3,,7,7h[4:1],,1,1,,8bp4[8:1]/6b>4[8:1],,,,,3/5,3/5,,4bp8[8:1]/2b<8[8:1],,,,,7/1,7/1,,6h[4:1],,8,8,,4/5,4/5,,3h[4:1],,1,1qq8[4:1],,,,,,2,2,1,3,7,7,8,6,3,3,4,2,5,5,4/6,,7,7,8,6,2,2,1,3,6,6,5,7,4,4-8[8:1],,,,,7,7,8,6,,3h[8:3]/5h[8:3],,,,,4/6,4qq1[1:1]b/6pp1[1:1]b,,,{2},,,1/8,
{8}2,2,8,4,7,7,1,5,3,3,1,,4/7,,,,6,6,4,8,3,3,5,1,7,7,5,,8/3,,,,1b/2b,,3/4,,5/6,,7/8,,1/2,,3/4,,2/6,,2/6,,{16}3x,5,3,5,3,,,,6x,4,6,4,6,,,,{2}3b/7b,
{8}4,4,5,,3/6,,4,4-8[8:1],,7,7-4[8:1],,2,2-5[8:1],,8,8,,4x/7x,,1/3,1/3,,8/6,8/6,,4/5,4/5,,2/7,2/7,,{16}1x,2,3,4,8x,7,6,5,{12}1b,,,(244),,,2bx/8bx,,2/8,,2/8,,3bx/7bx,,3/7,,3/7,,4bx/6bx,,4/6,,4/6,,(205){4}5bh[1:1]/7b,,,,3bh[1:1],,,,1bq2>8[4:7]b,,,,,,,,Ch[1:2],,,,,,,,E1/E2/E3/E4/E5/E6/E7/E8/B1/B2/B3/B4/B5/B6/B7/B8,E
MASTER
(205)
{2}4h[2:1]/5,{8}6,5,4,3,
{2}2b^1^8^7^6^5^4^3[4:7],{6}E4,B4,B5,{2}E6,C,
{2}7b^8^1^2^3^4^5^6[4:7]b,{6}E6,B5,B4,{2}E4,C,{4}8h[2:1],,1,27,
(180){12}2,4,3,5,4,6,
(165)3,5,4,6,5,7,
(160)4,6,5,7,4,6,
(130)3,4,3,5s1[1:1],4,6,
(129){1}5b,
(118){1}Ch[1:1],
(88){4},
(244)
{8}1b-5[8:1]/8b,,7,7^2[8:1],,3h[4:1],,5,6-1[8:1],,3,2-6[8:1],,7h[4:1],,8,
1^4[8:1],,5,6-2[8:1],,5,4,3h[4:1],,8,8,,17,17,,2b-6[8:1]/6b,,
8,8h[4:1],,6,4,2,7-3[8:1],,1,1h[4:1],,3,5,7,2h[4:1],,
8,6,4,{16}26,1,8,7,6,5,{8}4h[4:1]/1,,8,8,8,B2/E2,B6/E7,A4/B4,,
{16}7,5,7,5h[16:3],{4}7h[8:1],{16}2,4,2,4h[16:3],{4}2h[8:1],
{16}7,8,7,8h[16:3],{4}7h[8:1],{16}2,1,2,1h[16:3],{4}2h[8:1],
{16}18,,18,7,6,5,4,,12,3,4,5,6,,{4}8h[4:1],
{16}1,7,1,7,1,7,1,2,3,4,6,5,{8}4/3h[8:3],,,
2-5[8:1],8-6[8:1],2,8,,47,,6,5,4,35,35,,26,,
8-6[8:1],1-5[8:1],8-4[8:1],1-3[8:1],8,1w5[2:1],,{1},
3V17-5^6^7^8^1^2^3[4:11]/4h[4:3],4h[4:3],4h[4:3],{2}4h[2:1],3h[4:1],
{4}24,35,46,57,{8}8,8,1,1,2h[16:1]/8h[16:1],2h[16:1]/8h[16:1],
3h[16:1]/7h[16:1],3h[16:1]/7h[16:1],{16}E4,B4,B5,E6,{4},,,{1}Ch[4:3],
{16}28,,1,1,1,1,1,1,1,1,1,1,1,1,{8}1,2b/8b,3b/7b,{4}4b/6b,,,
{8}3b/8b,2^4[8:1],1,{4}2-6[8:1]/8-2[8:1],2/8^5[8:1]b,{8}4,{4}4,2v5[8:1]/6-8[8:1],26,47,
{8}6b/1b,7-5[8:1],8,{4}7-3[8:1]/1-7[8:1],7/1^4[8:1]b,{8}5,{4}5,4-1[8:1]/8-5[8:1],48,26,
{8}7-3[8:1],1^8-6^4[8:3],7,1,,1,,3,2-6[8:1],8^1-3^6[8:3],2,8,,8,,2,
1-5[8:1],5,1b,,7-3[8:1],3,7b,,{2}1h[1:1],B4/B5/E5,
{8}7,,26,{4}2-8[8:1]/6-8[8:1],2-4[8:1]/6-4[8:1],26,{8}1,1v4[8:1]*v6[8:1],,1,,28,,,
{32}1bh[8:1]/2b,3,4,5,{4}6,{32}8bh[8:1]/7b,6,5,4,{8}3,1,2bqq5[8:7]b/6bqq1[8:7],{2},,,
{6}48,48,37,{8}2h[4:1]/6,,7h[4:1],,5,3,15,,
2,2,4,4,3,3,8,8,{16}1,2,3,4,5,6,7,8,1,2,3,4,5,6,7,8,
{6}1h[12:1]/6h[12:1],1h[12:1]/5h[12:1],1h[12:1]/4h[12:1],
1h[12:1]/3h[12:1],1h[12:1]/2h[12:1],1h[12:1]/8h[12:1],
{512}8b-5-2-7-4-1-6-3[4:13]b,1b-6-3-8-5-2-7-4[4:13],{256},{128},{64},{32},{16},{8},{4},{2},{1},,,
{12}2,5,3,{4}4<8[4:1],,,{12}7,4,6,{4}5>1[4:1],,,{12}2,4,3,7,5,6,2,4,3,1<5v3[8:7],,,{1}4b,
1h[1:1],2h[1:1],3h[1:1],{4}4h[16:1],,,26,{16}1,5,1,5,1,5,1,5,1,5,1,5,{4}1,
{16}2,6,2,6,2,6,2,6,2,6,2,6,2-7[8:1]b,6-3[8:1],2,6,{1},{2}Ch[2:1]/B3/E3,{8}1,1,1w5[8:1]b,,
1b,,{16}28,,,7,{8}5^2[8:1],5,8-4[8:1],8,1,1,2,3,24,5,5,4h[4:1]/6,,
{16}6,5,4,3,2,1,83,4,5,6,7,8,{8}1h[4:1],,8,8,17,17,26,35,,
7,{16}7,5,6,,6,,2,,2,4,{8}3,3,{8}46,6,57,5,{4}8-4[8:1],1,
3b/5b,{16}2,6,2,6,2,6,2,6,3,5,3,5,4,4,4,4,4,4,4,4,4h,4h,4h,4h,4h,4h,4h,4h,
(61){4}4bw8[32:1]b,(244){2},{8}18,18,{4}2-5[8:1]/7-4[8:1],
2b/7-1[8:1],7/2-6[8:1],2/8-5[8:1],8/2-8[8:1],2-4[8:1]/7-4[8:1],27,{8}12,38,{4}7-4[8:1]/4,
7/2-8[8:1],2/7-3[8:1],7/1-4[8:1],1/7-1[8:1],7-5[8:1]/2-5[8:1],72,{8}38,3-6[8:1]b/8-5[8:1]b,,3b/8b,,,
45,{16}3,4,2h[8:1],,8,1,7h[8:1],,5,6,4h[8:1],,6,5,7h[8:1],,1,8,{4}2,6-2[8:1]*-8[8:1],
6,{8}1,1bh[4:1],,{16}3,4,5,6,7,8,{4}1b/4b,,,2/6-4[8:1],
6b/2b-6[8:1]b,2-4[8:1]/8-4[8:1],8/2-8[8:1],2/7-4[8:1]b,7/1-5[8:1]*-6[8:1],1,{8}78,78,{4}1v3[8:1]/6,
1v7[8:1],1-5[8:1]b,A1,{16}8,7,6,5,{8}4b/8b-3[8:1]b*-4[8:1]b,,8b,,25,1v4[8:1]/6^1[8:1],,1b/6b,,,
{4}3h[8:1]/8h[8:1],4h[8:1]/7h[8:1],5h[8:1]/6h[8:1],{8}45,34,23,12,81,,{16}1,8,1,8,
2,1,3,8,4,7,5,6,4,5,3,4,3,4,,,{8}1b/6b,1b/6b,{4}1b^4[8:1]/6b^1[8:1],,3b/8b,
{8}2-5[8:1],8-2^4-6[8:3]b,2,8,,7w3[8:1],,7,,,{4}1^4[8:1]/5^8[8:1],1-5[8:1]/5,1,
{8}7-4[8:1],1-7^5-3[8:3]b,7,1,,2w6[8:1],,2,,,{4}48,3h[8:1]/5h[8:1],2h[8:1]/4h[8:1],
{16}1,5,1<3[16:3],5,{8}1,,,{24}A1,D1,A8,D8,A7,D7,A6,,,
{16}1,5,1<3[4:1]b,5,{8}1,,,{24}A1,D1,A8,D8,A7,D7,A6,,,
{4}2b-6[8:1],2b/4b,7b-3[8:1],7b/5b<4[2:1],{2},5b,
{8}3/8-4^2[8:3],,2,2-6[4:1],,6^8[8:1],,1,,
2,{4}2-4[8:1]*-5[8:1],2-7[8:1]*-8[8:1],2,56,{8}78,16,,34,,4bh[77400:181451]/8b,
(225){16},,,{8}8,7,6,5,3,2,{16}1,
(215){24}8,7,6,5,,3,2,1,8,7,6,5,,3,2,1,8,7,{32}6,5,,3,2,1,8,7,
(205)
{1}6b,,2^3^4^5^6^7^8^1[4:7],,6^5^4^3^2^1^8^7[4:7]b,,{2}1h[2:1],
(215){4}8,27,
(200){12}2,2,4,3,5,4,
6,6,4,5,3,4,
(180)2,2,4,3,5,4,
7,7,4,5-8[8:1],4,6,
(130){1}5bp1[32:17]*q8[4:3],
(155){4},
(266)
2b-5[8:1]/8b,7^4[8:1],{16}4,3,2,1,8,7,6,5,{4}7b-4[8:1],2^5[8:1],{16}5,6,7,8,1,2,3,4,
5h[8:1],,8,1,2,3,4,5,1,2,3,4,1,8,{8}7h[4:1],,8,8,,35,35,,2b-6[8:1]/6b,,
8,8h[4:1],,{16}6,5,4,3,2,1,{8}8/7-3[8:1],,1,1h[4:1],,{16}3,4,5,6,7,8,{4}1/2h[4:1],
{16}8,7,6,5,4,3,2,1,84,73,62,51,{8}4h[4:1]/8,,1,1V36[4:1]*q6[4:1],1,{2},
{16}7,5,7,,4,,3,,2,4,2,,5,,6,,7,8,7,8,6,,6,,2,1,2,1,3b,,{4}3b,
{16}2,4,2,4,2,,7,5,7,5,{8}7,4h[4:1]/8,,{16}A8,E8,E7,A6,A1,B1,C,B5,A2,E3,E4,A4,
{8}6h[8:3],,,7b-4[8:1],1-3[8:1],7,1,,25,,{16}7,5,{8}6,56,47,4^1[8:1]/7h[4:1],,4b,,
8,8-6[8:1],8-2[8:1],8-5[8:1],8-3[8:1],{1}8w4[2:1],{4}27,
1-7[8:1]b,6-2[8:1]b,5h[8:1],{16}15,84,73,62,{4}1/5-1[8:1]b,3-7[8:1]b,4h[8:1],{16}84,15,26,37,
{8}4/8-4[8:1]b,,3,,26,26,17,,{24}7b/8b,61,52,{4}4h[8:1]/3h[8:1],{24}2b/1b,38,47,{4}5h[8:1]/6h[8:1],47,
1b/8b,{16}1b,2,3,4,7,8,1,2,5,6,7,8,3,4,5,6,1,2,3,4,{4}8,26,
{16}3hb[32:1],5h[32:1],3h[32:1],5h[32:1],4h[32:1],6h[32:1],4h[32:1],6h[32:1],
3h[32:1],7h[32:1],3h[32:1],7h[32:1],2h[32:1],8h[32:1],2h[32:1],8h[32:1],{2}B3f/E3/E4,{8}7,8,1,,
2b/4b,5,5,4b/6b,3,3,2b/4b,1,1,8b/6b,7,7,{4}1b/8b,3b/6b,
{16}2/7bh,3,4/7h,5,6,7,8/5bh,1,2/5h,3,4,5,6/3bh,7,8/3h,1,2,3,{8}4/8bh,4h[4:1]/8h,,
{32}D7,D6/E6,D5/E5,D4/E4,D3/E3,D2/E2,D1/E1,D8/E8,A6/E7,A5/E6,A4/E5,A3/E4,A2/E3,A1/E2,A8/E1,A7/E8,
{4}A6/Cf/D6/D7/E6/E7,
(244)
,{6}7h[12:1]/8h[12:1],7h[12:1]/8h[12:1],7h[12:1]/8h[12:1],
1h[12:1]/6h[12:1],2h[12:1]/5h[12:1],3h[12:1]/4h[12:1],
2h[12:1]/3h[12:1],1h[12:1]/2h[12:1],8h[12:1]/1h[12:1],
(205)
{24}1bh/8b,B1,C,B5,5hx[6:5],,{4},,,{1}4h[1:1],8h[32:127],{4},,,{32}A5,D5,A4,D4,A3,D3,A2,D2,
{1}1hx[16:31],,{1}A2/A3/B2/B3/D3/E3/Ch[1280:1]/A6/A7/B6/B7/D7/E7,,,,E
Re:MASTER
- 追加しました。BPMは推定です。修正等ありましたらよろしくお願いします。 -- けもがみ (2025-08-21 13:11:53)
- EXPERT譜面を追加しました。修正などありましたらよろしくお願いします。 -- Sugar (2026-01-09 00:07:50)
最終更新:2026年04月12日 09:23