アットウィキロゴ

AFTER PANDORA

アーティスト 削除

BPM BASIC ADVANCED EXPERT MASTER Re:MASTER
85 3 7+ 12 14 -

EXPERT MASTER Re:MASTER
譜面制作者 Jack はっぴー -

BASIC

(85)
{2}1,1,1,,8,8,1/8,,
(56.666666)
{4}8,8,7,7,6,6,4/5,,
4,4,3,3,2,2,1/8,,
1/2,1/2,1/2,,3/4,3/4,3/4,,
5/6,5/6,5/6,,7/8,7/8,7/8,,
5/6,5/6,5/6,,4/5,4/5,4/5,,
{1}5-1[4:1],2-5[4:1],6-1[4:1],2-6[4:1],7h[2:1]/8h[2:1],
1h[2:1]/2h[2:1],1h[2:1]/8h[2:1],
{2}1/8,
{12}1b,1,,2,2,,3,3,,3/4,3/4,,5,5,,6,6,,7,7,,7/8,7/8,,
8,8,,7,7,,6,6,,6/5,6/5,,4,4,,3,3,,2,2,,2/1,,,
1b,1,,1/2,1/2,,3,3,,3/4,3/4,,5,5,,5/6,5/6,,7,7,,7/8,7/8,,
8,8,,8/7,8/7,,6,6,,6/5,6/5,,4,4,,4/3,4/3,,2,2,,2/1,2/1,,
{1}1-4[4:1]/8-5[4:1],4-1[4:1]/5-8[4:1],
{4}
2,2,1/8,1/8,7,7,1/8,1/8,1b/8b,
E

ADVANCED

(85)
{8}2,2,2,,3,3,3,,4,4,4,,5/6,,,,
7,7,7,,6,6,6,,5,5,5,,3/4,,,,
(56.666666)
{12}3,3,,2,2,,1,1,,7/8,,,6,6,,7,7,,8,8,,1/2,,,
2,2,,3,3,,4,4,,5/6,,,7,7,,6,6,,5,5,,3b/4b,,,
{4}
2-5[4:1],,,6,7-3[4:1],,,2,1-5[4:1],,,6,7-4[4:1],,,3,
2z6[2:1],,,,8-4[4:1],,,4/5,
{12}
6,6,6,5/6,,,7,7,7,7/8,,,1,1,1,1/2,,,3/4,3/4,3/4,3/4,,,
3,3,3,3/4,,,2,2,2,1/2,,,8,8,8,7/8,,,5/6,5/6,5/6,5b/6b,,,
{4}6h[4:1],5h[4:1],4h[4:1],3,
3h[4:1],4h[4:1],5h[4:1],6,7h[4:1],6h[4:1],5h[4:1],4,
4h[4:1]/5h[4:1],,
{12}3,3,3,1/2,1/2,1/2,8,7,6,5/6,,,6,6,6,8/7,8/7,8/7,1,2,3,4/3,,,
2,2,2,4/3,4/3,4/3,5,6,7,8/7,,,7,7,7,5/6,5/6,5/6,4,4,3,4b/3b,,,
{24}
5/6,,7,7,7,,8,,1,,2,,3/4,,3/4,,3/4,,2/5,,,,,,
4/3,,2,2,2,,1,,8,,7,,6/5,,6/5,,6/5,,7/4,,,,,,
8/7,,6,6,6,,5,,4,,3,,2/1,,2/1,,2/1,,3/8,,,,,,
1/2,,3,3,3,,4,,5,,6,,7/8,,7/8,,7/8,,6/1,,,,,,
{12}6,6,6,7,7,7,8,8,8,1/2,,,3,3,3,2,2,2,1,1,1,8/7,,,
7,7,7,6,6,6,5,5,5,4/3,,,2,2,2,3,3,3,4,4,4,5/6,,,
4/5,
E

EXPERT

(85){1}2v3[12:44]/6v7[12:44],,,,(56.666666){12}4/5,,2,2h[12:5],,4,4h[12:2],,,3,4/5,6,7h[12:5],,5,5h[12:2],,,6,5,4,3h[12:2],,5,5h[12:2],,4,4q5[12:4],5,6,7,,,,8,8,7-3[12:1],,,2-8[12:1],,,6-4[12:1],,,1,1,,

{12}3h[12:2]/7h[12:2],,,,6,6,,5,5,,4,4,{8}3h[8:1],4h[8:1],5h[8:1],6h[24:7],2h[12:2],,{12}2/6,7,8,1h[12:2]/2h[12:2],,,4h[12:2]/5h[12:2],,,8h[12:2]/7h[12:2],,,6,5,4,3q4[4:1],,,,,,7pp5[4:1],,,,,,{8}3h[12:1],3h[12:1],{12}3,4,5,{8}6h[12:1],6h[12:1],{12}6,4,2,7-5-1[4:1],,8,8,,,2-4-8[4:1],,1,1,,,

{12}6p4[4:1],,,4>5[12:4],,,1h[4:2],,,,,,4,5,6,5/7,4,3,4/2h[12:2],,8,7<4[12:1],1,2,3>8[12:1],,,7,,,1/2,4/3,5/6,8pp3[12:4]/7qq4[12:4],5/6,4/3,,,,,,,
8/7,5/6,4/3,1qq6[12:4]/2pp5[12:4],4/3,5/6,,,,,,,2h[12:11]/8h[12:5],,,,,,6h[12:8],,,,,,5h[12:5],,,4h[12:5],,,3h[12:5],,,,,7h[12:4],,,,5w1[12:1],,,,,{24},3/7,4,5,6,7,8,1,

{24}2b/6b,,,,7,8,7,,1/6,,2,4,3,,4/5,,6,5,7h[12:1],,8,,1/7,,2h[12:1]/6,,4,,6,5,7,,3/8,,2,1,2,,3/4,,5/6,,7-3[12:1]/8h[12:1],,,,1,,1,,,,2,2,3/4,,1/5,,7,7,6/5,,8/4,,2,2,3/4,,5/6,,1/8,,3h[8:1],,,4,3,,1/7,,3,3,5,4,6h[8:1],,,5,6,,8/2,,3,3,4,2,

{24}1h[12:2]/5<8[12:1],,,,,,3,,3,,1/2,,8h[8:1]/3,,,1,1,8,2/7,,6,6,5,7,8h[12:2]/4>1[12:1],,,,,,6,,6,,8/7,,1/2,,4/5,,1/8,1/8,2/7,,6,5,4,3,2/6,,,,
4,4,3/5,,6b/7,,2b/3,,1/8<5[12:1],,,,2,2,1>4[12:1],,,,8,8,7-3[12:1],,,,1,1,2-6[12:1],,,,7,7,8h[12:2],,,,4,4,5-1[1:1],6,7,1,2,3,{1}5b,{4},,

{4},{12},4,5,2h[12:2],,4,3,4,5,6h[12:2],,5,7,5,4,2,3,4,7,6,5,4h[12:2],,6,3-6[12:1]/7-2[12:1],2,6,E

MASTER

(85)
{2}5<4[4:13],4h[4:1],4h[4:1],5h[4:1],5h[4:1],6h[4:1],6h[4:1],{4}5,{8}5,3,

(56.666666)
{12}2>6[8:1],2,5,7,8,8,2>6[8:1],2,5,7-3[12:1],8,8,
7^2[12:1],5,5,7^4[12:1],4,4,3-6[12:1]/7-2[12:1],2,2,37,,5,
7<3[8:1],7,4,2,1,1,7<3[8:1],7,4,2^7[12:1],1,1,
2^5[12:1],4,4,2-6[12:1],6,6,2-5[12:1]/7-4[12:1],8,8,{4}2z6[6:1]/7s3[6:1],,,

{12}45,45,{24}3,4,5,,7,8,5,4,3,1,2,8,1,7,8qq4[6:1],6,7,5,6,{8}4,{24},2,2h[12:1],,3,,18,,
{38}6,5,7,{228},{6}6,{38}3,4,2,{228},{6}3,{38}6,5,7,{228},{8}8,{24}3,3,4,{12}2,13,82,
{4}1pp5[6:1],4pp8[6:1],7pp3[6:1],2pp6[6:1],5,{12}8,4,2,1pp4[6:1]/8qq5[6:1],36,45,{4},

{12}1b/8b,{48}2,4,3,5,4,6,5,7,5,7,4,6,3,5,2,4,2,4,3,5,
4,6,5,7,5,7,4,6,3,5,2,4,2<3[2:1],4,3,5,4,6,4,6,4,6,3,5,{4}2b,,,
{12}5-2[8:1]/6,56,56,5/7-4[8:1],7,7,7/1-6[8:1],1,1,1/3-8[8:1],3,3,3/5s1[4:1],5,5,{2}58,
{12}2h[24:1]/4,7h[24:1]/5,3h[24:1]/4,8h[24:1]/6pp4[4:1],1h[24:1]/3,5h[24:1]/6,{2}4b,
{12}7h[24:1]/5,2h[24:1]/4,6h[24:1]/5,1h[24:1]/3qq5[4:1],8h[24:1]/6,4h[24:1]/3,{2}5b,

{72}3b,5,4,5,4,5,4,5,4,5,4,5,{60}3b,5,4,5,4,5,4,5,4,5,
{48}3b,5,4,5,4,5,4,5,{42}3b,5,4,5,4,5,4,
{36}6b,4,5,4,5,4,{30}6b,4,5,4,5,
{24}3b,4,5,6,{18}3b,4,5,
{12}6,8,{6}2,{4}4,{3}6h[12:7],2h[4:1],{8},{24}18,18,2,3,1,8,7,

{12}2v4[24:1]/6v4[24:1],2v5[24:1]/6v5[24:1],2v8[24:1]/6v8[24:1],{4},
{12}7v5[24:1]/3v5[24:1],7v4[24:1]/3v4[24:1],7v1[24:1]/3v1[24:1],{4},
{12}2v4[24:1]/6v4[24:1],2v1[24:1]/6v1[24:1],2v5[24:1]/6v5[24:1],{4},
{12}7v5[24:1]/3v5[24:1],7v1[24:1]/3v1[24:1],7v4[24:1]/3v4[24:1],{4},
{12}5v3[24:1]/8v3[24:1],5v6[24:1]/8v6[24:1],5v2[24:1]/8v2[24:1],{4},
{12}4v6[24:1]/1v6[24:1],4v3[24:1]/1v3[24:1],4v7[24:1]/1v7[24:1],{4},
{12}5-1[24:1]/8v1[24:1],5v6[24:1]/8v6[24:1],5v2[24:1]/8v2[24:1],{4},
{12}4-8[24:1]/1v8[24:1],4v3[24:1]/1v3[24:1],4v7[24:1]/1v7[24:1],{4},

{24}8^5[12:1],,5,4,4,,8^3[12:1],,3,4,4,,8/4qq1[6:1],,5,5,5,,4^7[12:1]/8,,6,6,6,,
4^1[12:1],,3,3,3,,4/7qq4[6:1],,8,8,8,,4,,3,2,2,,1>5[12:1]*V35[12:1],,5,6,7,8,
{6}1<5[12:1]*V75[12:1],{24}3,2,{6}1>5[12:1]*V35[12:1],{24}7,8,
{6}1-6[12:1],{24}3,2,{6}1/4-7[12:1]*^7[12:1],{24}2,3,
{6}4-1[12:1]*^1[12:1],{24}6,5,{6}4-7[12:1]*^7[12:1],{24}2,3,
{6}4,{24}6,5,4>5[1:1],4,6,8,1,3,{2}2b/4b,,,{4}45,{12}36,,2,

{72}2b,8,1,8,1,8,1,8,1,8,1,8,{60}2b,8,1,8,1,8,1,8,1,8,
{48}2b,8,1,8,1,8,1,8,{42}2b,8,1,8,1,8,1,
{36}7b,1,8,1,8,1,{30}7b,1,8,1,8,
{24}2b,1,8,7,{18}2b,1,8,
{12}7,5,{6}3,{12}2,1-5[24:1]/8-4[24:1],45,27,{1}1b/8b,,,,E

Re:MASTER


  • 追加しました。修正等ありましたらよろしくお願いします。 -- けもがみ (2025-08-23 01:26:42)
  • EXPERT譜面を追加しました。修正などありましたらよろしくお願いします。 -- Sugar (2026-01-25 22:56:45)
  • BASIC, ADVANCED譜面を追加しました。修正等ありましたらよろしくお願いします。 -- HS (2026-09-15 19:39:47)
名前:
コメント:

タグ:

+ タグ編集
  • タグ:
最終更新:2026年09月15日 19:39