| アーティスト |
大久保 博(BNGI)「デイトナ USA」 |
EASY
BASIC
ADVANCED
EXPERT
MASTER
(144){16}
2,,,7,6,,,,57,,,46,,,35,,
,,,,1,8,1,,5,4,5,,27,,,,
7,,,2,3,2,,,1,,8,,7,,8h[8:5],,
,,,,,,,,2h[4:1],,,,3,,,,
6,,,,8,,,,4,,3,,2,,8h[4:1],,
,,2,,3,1,3,,6,8,6,,18,,,,
6,,,4,,3,{8}2,1,8,7,1h[8:5],
,,,,8,6,4,2b,
3,8-5[8:1],3,,3,5-8[8:1],3,,
3,7-2[8:1],3,,3,2-7[8:1],3,,
3,8-5[8:1],3,,3,5-8[8:1],3,,
2,3,2,3,7,6,7,6,
6,1-4[8:1],6,,6,4-1[8:1],6,,
6,2-7[8:1],6,,6,7-2[8:1],6,,
6,1-4[8:1],6,,6,4-1[8:1],6,,
6,1,6,8,{16}7,6,5,4,3,2,1,8,
{8}
2h[4:1]/3,4,5,6h[8:3]/5,4,3,2h[8:5]/1,8,
7,6,5,4,3^6[8:1],6^1[8:1],,,
2h[4:1],,3,1h[4:1],,8,6h[4:1],,
5,8h[4:1],,7,1^6[8:1],6^3[8:1],,,
7h[4:1],3,5,2h[8:3]/8,6,4,6h[8:5]/3,4,
5,4,3,2,1-4[8:1],4^1[8:1],,,
5,,7,6h[8:3],,1,4h[4:1],,
5h[8:3],,,3h[8:3],,,4,,
3,,3,8,3h[4:1]/7,6,7,8,
37,,36,5,3h[4:1],4,5,6,
3,5,36,7,3h[4:1],,4,8,
13,2,38,7h[8:3],3h[4:1],,,,
6,,6,1,6h[4:1]/2,3,,1,
6,2,6,3,6h[4:1],3,2,1,
6,2,63,4,6h[4:1],,5,5,
46,3,26,1,8/6h[4:1],8h[8:3],,,
3,2,3h[4:1],1,4,8,4h[4:1],7,
5,7,5h[4:1],8,6,1,6h[4:1],2,
5,3,5h[4:1],2,4,1,4h[4:1],8,
3,7,3h[4:1],6,2-7[8:1],5,,,
{2}
2^7[4:1],6-3[4:1],
8-5[4:1],3^6[4:1],
5h[4:3],,
{8}
4h[8:7],5,6,7,8,1,2,3,
1b/8^3[2:1],,,,,,,,
1h[4:1],,8h[4:1],,2h[2:1],,3h[2:1],,
,,8h[4:1],,7h[2:1],,6h[2:1],,
,3,5,7,2,4,6,8,
7,5,3,1,3^8[8:1],8^5[8:1],,,
4,3,1h[4:1],8,7,6h[4:1],5,1,
2h[4:1],3,4,7h[4:1],6,5,4,3,
2h[4:1],3,3h[4:1],4,7h[4:1],6,6h[4:1],5,
3,4,5,6,7^2[8:1],2^5[8:1],,,
6h[4:1],,4,6h[4:1]/4,,3,6h[8:3]/3,,
,2,1,8,7,6,27,,
3-6[8:1],3h[4:1],,,7^2[8:1],7h[4:1],,,
8-5[8:1],8h[4:1],,,1-4[8:1],1h[4:1],,,
3h[4:1]/4,,5,3h[4:1]/5,,6,3h[8:3]/7,,
,8,1,2,3,4,18,,
1-5[8:1],2h[4:1],,,7^2[8:1],7h[4:1],,,
8-4[8:1],3h[4:1],,,1-5[8:1],1h[4:1],,,
{1}
2h[4:7],
3h[4:6],
5h[1:1],
4h[1:1],
{4}
6h[1:1],1,3,3,
8h[1:1],5,7,7,
1,8,4,5,
5h[2:1],6,{16}1,2,3,4,5,6,7,8,
{1}1b,
,,,
E
Re:MASTER
(144)
{16}2b,,,6,{8}5,,26,5,4,37,,6,{16}3,4,3,,6,5,6,,45,,,,36,,,3,4,3,,,56,,4>5[8:5]/5p4[8:5],,{1},{8}2,8b,
1h[8:1]/8b,,1h[8:1]/8,,1h[8:1]/7,6,1h[8:1],6,1h[8:1]/5,4,8h[8:1]/5,6,1h[8:1]/5,4,8h[8:1]/5,6,
27,{16}1,8,1,8,{8}1,56,34,18,2b/7b,,45,45,,{16}2,7,1,8,4,5,3,6,
{8}1b-5[8:1],7,5-1[8:1],,1-5[8:1],7,5-1[8:1],,1-5[8:1],7,5<3[4:1],,{2}8h[4:1],
{16}3,,1,,28,,6,5,6,,8,,17,,3,4,3,,1,,28,,6,5,{8}6,78,18,12,
8-4[8:1],2,4-8[8:1],,8-4[8:1],2,4-8[8:1],,8-4[8:1],2,4>6[4:1],,{2}1h[4:1],
{16}7,,8,,16,,3,4,3,,1,,38,,6,5,{8}6h[8:3],8,1,2,45,3,6,7b/8b,
1b-5[8:1],7,5-1[8:1],7,1-5[8:1],7,5-1[8:1],7,1-5[8:1],7,5<3[4:1],8,{2}8h[4:1],
{16}3,,1,,28,,7,5,6,,8,,17,,2,4,3,,1,,28,,7,5,{8}6,78,18,12,
8-4[8:1],2,4-8[8:1],2,8-4[8:1],2,4-8[8:1],2,8-4[8:1],2,4>6[4:1],1,{2}1h[4:1],
{16}6,,8,,71,,2,4,3,,1,,82,,7,5,6,,8,,71,,2,4,{8}3,18,3>5[2:1]/6<4[2:1],,
{1},{8}3,,34,5,6,,56,4,3h[4:1]/4,,2,3,4,,24,5,6h[4:1]/5,,7,6,5,5,4/5-2[4:1],4,
,,{2}4-7[4:1],6-1[4:1],3-8[4:1],{8}7,,7h[4:1]/8,,6,7,{4}8,78,1p4[4:1]/7-4[4:1],,,4b,
{8}6h[4:1],4,5h[4:1],7,4h[4:1],2,3h[4:1],1,4h[4:1],2,5h[4:1],7,6h[4:1],8,5,68,
7h[4:1],1,8h[4:1],6,1h[4:1],3,2h[4:1],4,1h[4:1],3,8h[4:1],6,7,7,68,1,
2-6[4:1],8,5,,7-3[4:1],1,4,,2-6[4:1],8,4,,7-3[4:1],1,5,1,
{1}7b,{8}34,3,56,6,{16}1,8,1,8,{32}1,2,3,4,5,6,7,8,{1}1b,
{4}1-5[8:1],1/8-4[8:1],8/2-6[8:1],2/7-3[8:1],7/1-6[8:1],1/7>5[4:1],3h[4:1],,
{16}7,,8,,16,,3,4,2,,1,,38,,6,5,7,,8,,16,,3,4,{8}2,12,18,78,
{4}8-4[8:1],8/1-5[8:1],1/7-3[8:1],7/2-6[8:1],2/8-3[8:1],8/2<4[4:1],6h[4:1],,
{16}2,,1,,83,,6,5,7,,8,,61,,3,4,2,,1,,83,,6,5,{8}7,87,21,36,
{4}7-4[8:1],7b/8-3[8:1],8b/6-1[8:1],6b/5-2[8:1],5b/7-4[8:1],7b/3>5[4:1],8b,,
{16}7,,78,,12,,3,4,3,,12,,78,,6,5,6,,78,,12,,3,4,3,,12,,78,,45,,
{4}2-5[8:1],2b/1-6[8:1],1b/3-8[8:1],3b/4-7[8:1],4b/2-5[8:1],2b/6<4[4:1],1b,,
{16}2,,21,,87,,6,5,6,,87,,21,,3,4,3,,21,,87,,6,5,6,,87,,2/1<4[2:1],,21,,
{4}3b,,,{1}3>5[2:1],{4}3,3h[8:3]/4h[8:3],,{8},35,,3h[8:3]/6h[8:3],{2},{16}2,7,1,8,4,5,3,6,
{8}1h[8:1],,1h[8:1]/8,,1h[8:1]/7,6,1h[8:1],6,1h[8:1]/5,4,8h[8:1]/5,6,1h[8:1]/5,4,8h[8:1]/5,6,
27,{16}3,4,,6,{8}5,37,4,5,2b/6b,{16}2,1,2,,7,8,7,,1,8,1,8,{32}1,2,3,4,5,6,7,8,{1}1b/5b,,,,E
- Re:MASTER譜面を追加しました。修正等ありましたらよろしくお願いします。 -- けもがみ (2026-04-06 19:57:11)
最終更新:2026年10月04日 09:44