アットウィキロゴ

∀

アーティスト ああああ

BPM BASIC ADVANCED EXPERT MASTER Re:MASTER
245 6 8 11+ 14 -

EXPERT MASTER Re:MASTER
譜面制作者 Luxizhel サファ太 -

BASIC


ADVANCED


EXPERT

(245){2}
3h[2:9],,,,,4h[2:9],,,,,5h[1:4],,,,,6h[1:2],,,,E5,
{4}4,2,1,6,7,1,3,8,6,4,4,2,5,7,8,1,3,7,5,3,1,
1,4,5,6,1,2,8,7,3,5,7,8,3,1,8,5,3,26,,
{8}5h[4:1]/3h[4:1],,,5/3^6[8:3],,,,,,7,7,,,4,4,,56,,56,,
4/7<3[2:1],,,,,,,,,2,2,,,4,4,,3x,,24,,
3h[4:1],,5,5^8[8:3],,,,,,3,3,,,8,8,,2,2,1,,
8h[4:1]/3h[4:1],,,7h[4:1]/4h[4:1],,,6h[4:1]/5h[4:1],,,
{4}56,78,12,34,56,7bh[8:3]/8bh[8:3],,{8},
1x>6[1:2],,,,{2},,,,,7-5-3-1[1:2],,,,,,8V25[1:2],,,,,,3-1-7-5[1:2],,,,,,8h[4:1]/1h[4:1],
{4}1b/2b,12,78,78,12,34,56,78,56,56,34,34,12,56,78,34,
12,12,78,78,56,12,34,78,56,7,34,2,81,{8}1,1,8,,27,,
3h[4:1]/4h[4:1],,,6h[4:1]/7h[4:1],,,1h[4:1]/2h[4:1],,,6h[4:1]/8h[4:1],,,{2}1b/5b,
{8}3-5[4:1],,,6x,6x,,,56,,7h[4:1],,8,8,,16,,5/2-8[4:1],,,4,4,,,15,,3h[4:1],,4,4,,25,,
4/7-4[4:1],,,3,3,,,34,,2h[4:1],,1,1,,38,,4/7-1[4:1],,,5,5,,,48,,7h[4:1],,5,5,,46,,
5/3-6[4:1],,,7,7,,,78,,6h[4:1],,5,5,,47,,8/3-8[4:1],,,7,7,,,56,,3h[4:1],,4,4,,25,,
{2}4/3qq8[4:3],,7qq4[4:3],,2qq6[4:3],,4pp8[4:3],,
{1}1h[1:4],,Ch[1:2],,,,,,
2h[2:3],4h[2:3],5h[1:1],7,7h[2:3],5h[2:3],4h[1:1],Ch[2:1],
{2}18,87,76,65,54,43,32,21,
{8}3h[8:3],,,4h[8:3],,,5,,,,E6/B5/B4/E4/E5f,,,,,,
3-8[8:1],,7,7,,16,16,,5-1[8:1],,2,2,,38,38,,
7,7,,56,,78,,12,,3^8[4:1]/4p7[4:1],,,,,,,
2-5[8:1],,6,6,,47,47,,8-4[8:1],,3,3,,25,,34,,12,,78,,56,,3q8[4:1]/4^7[4:1],{1},{8}
6-1[8:1],,2,2-5[8:1],,8,8,,7-4[8:1],,3,3-8[8:1],,5,5,,
56,56,,78,,12,,34,,25,,25,,6,6,,5b/7b,,,2b/4b,,,1bh[2:1]/7bh[2:1],,,,,,8xz4[2:1],,,,,,,,
3,,2,,5,,6,,2,,4,,6,5,4,,2,,1,,1,,4,,5,,7,,2,1,8,,
3,,4,,7,,5,,2,,4,,6,5,4,,6,,7,,3,,1,,6,,8,,7h[4:1]/3h[4:1],,,,
2b/8b,,,7,7,1,,26,26,26,26,,3b/5b,,,6,6,4,,37,37,37,37,,
4b/6b,,,2,2,4,,15,15,15,15,,
2bh[4:1]/4bh[4:1],,,5bh[4:1]/7bh[4:1],,,1bh[4:1]/3bh[4:1],,,6bh[4:1]/8bh[4:1],,,
7,7,7,7,1,1,1,1,81,81,81,81,1bx/8bx<1[2:5]b,,Cf/B5/B4,
E

MASTER

(245)
{1}4h[1:10],,{2},Ch[2:5],{1},,B1/B2,,{2},8h[1:2],{1},,
{2}6h[1:2],{8},4,,3,3,,{1}2V84[4:3],{4}6,7h[1:2],,{8},5,,4,4,,{1}3V15[4:3],{4}7,
8h[1:2],,{8},6,,5,5,,{1}4V26[4:3],{4}8,7h[4:5],,{8},5,,4,4,,3h[4:3],,8,8,{4}8s4[2:1],,,

1bhx[4:1],{8},{4}1h[8:7]/4,,,{8}3,3,,,24,24,,{16}3h[16:3],,,5,,,5,4,
{8}6h[4:1],,,{4}4/7h[8:7],,,{8}5,5,,,47,47,,6,6,6,{16}4,5,
{8}3h[4:1],,,{4}2h[8:7]/5,,,{8}4,4,,,35,3h[2:1]/5,,4,4,{16}E5,E6,E7,E8,
{8}1bx,,3,24,,6,57,,18,{4}27,56,34,{8}15,15,15,{4}1^2-4^5[4:1]/5^6-8[4:1],,,

{2}A6/A7/D7/E7f/Chf[1:6],,,E8,,,{4}E1,,,B1,,,B2,,,B1,,,
8^5[4:5],,,{8},2,,3,3,,{4}4^1[4:5],,,{8},5,,6,6,,{4}7^4[4:5],,,1b,,,
{8}2h[4:1],,,2h[4:1]/4,,,1h[4:1]/4,,,5h[4:1]/8h[4:1],,,{2}6bhx[4:1]/7bx-3[8:1],{8}

1,1,,28,3,3,5,6h[4:1],,5,47,,3,3,4,1-5[8:1],,1,7^4[8:1],,7,3-8[8:1]b,,3,,
{16}D8/E8,E7,E6,E5,E4,,D1/E1,D2,D3,D4,D5,,D8/E8,D7,D6,D5,{8}D4,1b/Cf,,,{16}7,8,{4}7<3[8:3],,,
{16}1,2,3,4,5h[8:1],,2,3,4,5,6h[8:1],,8,7,6,5,4h[8:1],,
1,8,7,6,{8}5h[8:1],3,3,4,2,2,8h[8:1],{16}1,7,1,7,
{8}1b-5[8:1],,5,6b^1[8:1],,4,3b^6[8:1],,1,8bh[4:1],,5,{16}47,,,36,,,25,,

{1}2bV85<1[4:5]/5bh[1:2],,{8}3bV16<2[4:5],,,4,4,,,5,,4,,5,5,,2-6[8:1]/4,,
1bV75^8[4:5],,,4,4,,,3,,2,,1,1-5[8:1],,7,,6h[4:1],,,5,5/7h[4:1],,,5,5/8h[4:1],,,5,57,,46,,
3h[4:1]/4,,4,2,4,1,4,2,4,5,46,7,4,5,46,7,8h[4:1]/5,,5,7,5,6,5,7,5,4,35,2,5,4,35,2,
{1}1/4bV63-8[1:1],8V27-4[1:1],4V25-1[1:1],1V35[2:1],
{8}3b/8b,7,6h[4:7],,4,4,,5,,5,,5,{6}4,4,4,{1}4h[1:2],,,,,,

1<1[1:2],,1<1[1:2]*v7[2:1],,1<1[1:2]*v6[4:3],,1<5[4:3]*-5[4:3],,
{8}4/6h[4:1],,5,5,7h[4:1],4,4,,8h[4:1],,3,3,1h[4:1],2,2,,
2h[4:1],,1,1,3h[4:1],8,8,,4h[4:1],,7,7,5h[4:1],6,6,,
3,4,2,6,5,7,{4}Chf[2:1],,8h[8:3],{16},,1,8,1,8,1,8,

{8}2b-5[8:1],7-4[8:1],2,7,,1,24,3,5,4^7[8:1],8,4,,1-5[8:1],3,1-6[8:1],
2,{4}1^4[8:1],1^6[8:1],1-5[8:1],1/5V38[4:1]b,{8}8,7,6h[4:1],,8x,71,,
2^5[8:1],,2,8^3[8:1],,8,4,,5-2[8:1],6-1[8:1],5,6,,4/8x^3[8:1]*^5[8:1],,8,,
4x,5,{4}6h[4:1],5h[4:1],4V61[4:1]b,{8}1,2,3h[4:1],,1x,28,,
{16}1,2,3,4,5,6,1,2,3,4,5,6,{4}1h[4:1],{16}7,6,5,4,3,2,7,6,5,4,3,2,{4}7h[4:1],
{16}3,4,5,6,7,8,15,4,3,2,1,8,7,6,5,4,8,7,6,5,48,1,2,3,48,7,6,5,{4}4b/8b,
{16}7,5,6,5,,,2,4,3,4,,,{4}1/Cf,,18,{16}1,8,1,8,2V46[4:1],7,2,7,{2},

5h[4:1]/8bpp3[4:5],5h[4:1],5h[4:1],{8}4,4,5,,{2}4h[4:1]/6qq8[4:5],3h[4:1],2h[4:1],{8}2,2,1,,
27,6,5,4,7,6,5,4,6,6,5,4,35,3,4,5,2,3,4,5,2,3,4,5,46,,2/8h[4:1],,{16}E1,E8,E7,E6,E5,E4,E3,E2,
{8}E1f/7hx[4:1],,,7h[4:1],,5,5,8,3,3,{16}1,2,1,2,{8}8h[4:1],,3,2h[4:1],,4,4,1,6,6,{16}8,7,8,7,
{8}1b,5,5,8,4,4,53,2,18,7,{16}6,5,6,5,{8}7b-4[8:1],1,7,2b-5[8:1],8,2,7b^4[8:1],8,7,2b,13,,
48,48,37,37,26,26,{16}15,2,3,4,51,6,7,8,15,26,37,48,{4}5-2[8:1]*-8[8:1]/1,
{1}5bx>5[1:2]*<5[1:2]/A3/A7/B3/B7/Cf,,,,E

Re:MASTER


  • 追加しました。修正等ありましたらよろしくお願いします。 -- けもがみ (2025-08-26 14:49:28)
  • Azasu -- 名無しさん (2025-10-06 10:06:32)
名前:
コメント:

タグ:

+ タグ編集
  • タグ:
最終更新:2026年04月11日 19:18