BASIC
ADVANCED
EXPERT
MASTER
(186)
{2}2>2[4:7],{1}5,{2}5,6-2-5-1[4:7],{1}4,{2}4,3v1>1[4:7],{1}6,{2}4,7pp2^7[4:5]b,{1}3,{4}5,,
3b/4,45,{8}6,5,4,5,,5,4,3,,4,,4,5/6b,,45,,3,3,4,5,,6,5,4,,3,,3,
2b/4,,45,,6,6,5,6,4/7b,6,5,4,,2,,2,{4}1b/3,45,6/8b,45,
1b/2b,7b/8b,1b-6[16:1]/8b-3[16:1],{32}1b/8b,E1f,,,{8},
45,3,3,4,{16}2,1,2,1,{8}2,38,4,6,6,5,{16}7,8,7,8,{8}7,16,
5,3,3,4,{16}2,1,2,1,{8}2,38,2,2h[8:1],4h[8:1],5h[8:1],7,{16}1,1h[8:1],,7,6,5,
{8}34,2,12,8,{16}7,5,7,5,{8}7,48,7,8,78,1,{16}2,4,2,4,{8}2,15,
2,1,12,8,{16}7,5,7,5,{8}7,48,12,3,78,6,27,{16}4,5,{8}3b/6b,,
4/5-7[8:1],4,3,2,{16}8,3,1,2,{8}8,56,4-2[8:1],5,6,7,{16}1,6,8,7,{8}1,43,
5-7[8:1],4,3,2,{16}8,3,1,2,{8}8,56,7,7h[8:1],5h[8:1],4h[8:1],2,{16}8,8h[8:1],,2,3,4,
{8}5b/6b-8[8:1],4,2,3,{16}1-5[8:1],4,1,4,{8}1,2,4b/3b-1[8:1],5,7,6,{16}8-4[8:1],5,8,5,{8}8,7,
5b/6b-8[8:1],4,2,3,{16}1b-5[8:1],4,1,4,{8}1,2,3b/4b,2,5b/6b,7,3b/6b,{16}1,8,{4}2b/7b,
2q6[4:1],{8}1,1,8^5[16:3],,3,3h[4:1],,4,5,6h[4:1],,2,{4}2>6[4:1],
6<2[4:1],2,{8}6,5,4,3h[4:1],,4qq5[8:3],5,46,,,8h[4:1],,
2V46[4:1],,8,8,1p5[16:3],,3,3h[4:1],,4,5,6h[4:1],,8,{4}8^3[4:1],
3p7[4:1],7^4[4:1],4,{8}8,8h[4:1],,4,4h[4:1],,{16}2,1,8,7,{4}6b/2b,
7p3[4:1]/5,{8}8,8,1^4[16:3],,6,6h[4:1],,5,4,3h[4:1],,7,{4}7V53[4:1],
3V17[4:1],7,{8}3,4,5,6h[4:1],,5pp4[8:3],4,53,,,1h[4:1],,
7<3[4:1],,1,1,8q4[16:3],,6,6h[4:1],,5,4,3h[4:1],,1,1-5[8:1],8,
{4}1/7-2[8:1],7/4-8[8:1],14,{8}27,36,{16}2,4,3,5,4h[8:1],,7,5,6,4,5h[8:1],,{4}1b,
{8}2/7>7V13V57[4:13],,,1hx[1280:1],{2},{4},{16},{32},2hx[1280:1],{2},{4},{8},
{2}3hx[1280:1],{4},{8},{16},4hx[1280:1],{2},
{8}2bv8>8[2:3]/7b,,,5hx[1280:1],{2},{4},6hx[1280:1],{2},{4}2b/7b,
{16}4h[16:3],,,5h[16:3],,,6,,6h[16:3],,,7h[16:3],,,8,,
{4}1b/6bh[4:3],C,C,C,{16}7bh[4:3]/A2/B2,,,E4,,,A5,,A6/B6,,,E8,,,A1,,
{4}2bx/8bhx[12:9],{12}1hx[1280:1],2hx[1280:1],3hx[1280:1],
4hx[1280:1],5hx[1280:1],6hx[1280:1],7hx[1280:1],8hx[1280:1],1hx[1280:1],
{32}2,3,4,5,6,7,8,1,2,3,4,5,6,7,8,1,{2}2bx/6bx,
{8}3-1[8:1]/4,5,6V48[4:1]/3,,68,1,2-6[8:1],2,1,8,{4}4x-8[8:1]/7x-5[8:1],4x/7x,{8}1,2,
3/8-6[8:1],4,3V15[4:1]/8,,35,6,7-3[8:1],8,5-1[8:1],4,8-3[8:1]*-5[8:1],7,{4}8b,2x/6x,
{8}1-3[8:1]/8,7,6V84[4:1]/1,,64,3,2-6[8:1],1,4-8[8:1],5,1-4[8:1]*-6[8:1],2,1b,,2,3,
4-1[8:1]/7,6,45,,26,2-5V38[8:3]b/6-1V74[8:3],15,26,{2},
{16}1x-5[8:1]b/5x-1[8:1],2x/6x,3x/7x,4x/8x,{8}1b/5b,,
3x-5[32:3]/7x-5[32:3],28,3-7-1[4:1]/7,,7,6,5-1[8:1],5,
{4}8-5[8:1]b*-6[8:1]b,8b-2[8:1]b*-3[8:1]b,8b,{8}4,35,
6-4[32:3]/2-4[32:3],71,6-2-8[4:1]/2,,2,3,4-8[32:3],5-7[32:3],
4x-2[32:3],5x-1[32:3],4x,5x,{32}2x,3,4,5,6,7,8,1,{8}2bx/6bx,,
3-5[32:3]/7-5[32:3],28,3-7-1[4:1]/7,,7,6,5-1[32:3],4-2[32:3],
5x-7[32:3],4x-8[32:3],5xs1[32:5]b,4x,5bx,,2,3,
4-8[8:1]/7-5[8:1],8,4x/7x,,2-8[32:3],7-3[32:3],2x,7x,
{16}8bx,4,8,4,1bx,5,1,5,{4}2b-5[32:3]/6bv1[32:3],2b<5[2:1]/6b,
2b/4h[8:3],,{8},3,,2,{4}2h[4:1],4h[4:1],5h[4:1],{8}7,7>3p6[4:5],,{1}5h[4:5],{4},,{16}56,,,45,,,
{2}3bh[8:3]/4bh[8:3],{16},,24,,,36,,,{2}5bh[4:1]/7bh[4:1],2bh[4:1]/4bh[4:1],
{8}7b-4[8:1]/8b,1,27,3,{16}2,5,1,6,{8}8,17,2b^5[8:1]/8b,7,62,6,{16}7,4,8,3,{8}1,82,
7bv4[8:1]/1b,2,37,3,{16}2,5,1,6,{8}8,17,2,12,12,78,78,{16}1,1h[8:1],,7,6,5,
{8}3b-8[8:1]/4b,5,36,7,{16}7,8,6,1,{8}5,24,6b^1[8:1]/5b,4,63,2,{16}2,1,3,8,{8}4,75,
3bv8[8:1]/4b,5,36,7,{16}7,8,6,1,{8}5,24,3,34,6,56,27,{16}1,1,{4}2bx/8bx-6[8:1],
8-4[8:1]/3h[8:1],8-5[8:1]/3h[8:1],8-2[8:1]/3h[8:1],8^6[8:1]/3h[8:1],
8q4[8:1]/3h[8:1],8v5[8:1]/3h[8:1],8^2[8:1]/3h[8:1],8/3h[8:1],
{80}8x/3h[8:1],D8,A7,D7,A6,{16},,,{80}8x/3h[8:1],D1,A1,D2,A2,{16},,,
{80}8x/3h[8:1],E8,B7,B6,E6,{16},,,{80}8x^5[8:1]/3x^8[8:1],E1,B1,B2,E3,{16},,,
{4}3bx/8bx-4[8:1],5bxpp4[4:1]b/8bx,2bx/5bx,1bx-3[8:1],
1-5[8:1]/6h[8:1],1-4[8:1]b/6h[8:1],1-7[8:1]b/6h[8:1],1^3[8:1]/6h[8:1],
1p5[8:1]/6h[8:1],1v4[8:1]b/6h[8:1],1^7[8:1]b/6h[8:1],1/6h[8:1],
{80}1x/6h[8:1],D2,A2,D3,A3,{16},,,{80}1x/6h[8:1],D1,A8,D8,A7,{16},,,
{80}1x/6h[8:1],B1,C,B5,A5,{16},,,{8}1x/6x,,3b/8b,{16}2,2,{8}1,38,1b/6b,{16}7,7,{8}8,27,
{32}1bx/8bx,2x/7x,3x/6x,4x/5x,{8},,,57,{16}6,6,1,2,3,4,
5,7,5,7,4,7,3,7,2,7,1,7,8,7,8,7,8h[8:1],,6,6,1,2,3,4,1,8,7,6,{8}5/4-8[8:1],6,
7-5[8:1],7,2-4[8:1],2,1-5[8:1],1,3>5[4:1]b,3,3bx/8h[4:1],,,{16}7,6,5h[8:1],,1,8,7h[8:1],,3,2,
{8}1h[8:1],4h[8:1],7h[8:1],2h[8:1],5h[8:1],8h[8:1],4-7-5[4:1],4,{8}2,1,8-3-1[4:1],8,6,5,4-8[8:1]b,4,
4b/2b-5[8:1],1,2b/7b-3[8:1]b,6,7b/1b-5[8:1],8,{4}1b^4[8:1]b*^6[8:1]b,
{64}1b,A2/A8,D3/D8,A3/A7,D4/D7,{1}A4/A6,,,,E
Re:MASTER
- 追加しました。修正等ありましたらよろしくお願いします。 -- けもがみ (2025-08-30 21:45:57)
最終更新:2026年04月05日 14:17