| アーティスト |
打打だいず Vs. Tanchiky Vs. uma Vs. モリモリあつし |
BASIC
ADVANCED
EXPERT
(202){1},,,{8}1/3b,1h[8:5]/3bh[8:5],,,,,,,4/6b,4h[8:5]/6bh[8:5],,,,,,,7/1b,7h[8:5]/1bh[8:5],,,,,,,4h[4:1]/3,,2,,5h[4:1]/6,,7,,6,6-2[8:3]*<1[8:3],,,,,,,3,3-7[8:3]*>8[8:3],,,,,,,{16}6h[16:3],,,5h[16:3],,,4,,4h[16:3],,,3h[16:3],,,2,,{1}2<5[2:1]*p5[2:1],{8}7h[8:11],,5,5,,3,3,,6,6,,1,1,,2/6,,3h[8:5],,5,5,,8,8,,{16}1x/2x,,,1x/2x,,,1x/2x,,{2}3b/8b,2V41[4:3]/7V58[4:3],,,1h[4:1]/8h[4:1],
{4}2/8,2/8,2/1,2/3,2/4,{8}3,4,5,,{4}2/6,1/7,1/7,7/8,6/7,7/5,{8}6,5,4,,3/7,,2,2,1,,7,7,8,,2,2,4,4,6,6,8,,1/7,2,3/4,,8/2,7,6/5,,3,4,5,6,2b/7b,,,,1bx-5[8:1]/2bx-4[8:1],,,,6,,5/6,,8b-4[8:1]/7b-5[8:1],,,,3,,4/3,,1/2,,3/8,,7/8,,1/6,,{16}3,4,3,,2/5,,,,6,5,6,,7/4,,,,{8}5b-1[8:1]/6b-1[8:1],,,,2,,1/3,,4b-8[8:1]/3b-8[8:1],,,,7,,8/6,,4/5,,3/8,,{12}2x,1x,2x,1x,2x,1x,{8}2x,,3/7,3b/7b,,,,,
{8}6h[4:1],,5,5h[4:1],,7,7h[4:1],,6,6h[4:1],,8,8,,1/7,,3h[4:1],,4,4h[4:1],,2,2h[4:1],,3,3h[4:1],,1,1q5[8:1],,7,,{12}6x,,6x,5x,,,3x,,3x,4x,,,7,,7,5,,5,4,,4,2,,,{8},1hx[4:1]/8hx[4:1],,,1/8,1/8,,2q5[8:5]/7p4[8:5],{1},
{1}2b/7b,{8},,,,E6,B5,B4,E4,,,,,B6,B5,B4,B3,,Ch[8:7],,,,,,,,,,,E8,B8,B1,E2,,,,,E6,B5,B4,E4,,,,,E6,E5,E4,Cf,,,,,1/8,,1/8,,{8}8<3[2:1],,,,,,1x,1x>7[8:5],,,,,,,1x,1xV75-3[8:5],,,,,,,2x,2x,,1/8,,5/7,5/7,,2/4,,7bh[4:1]/8bh[4:1],,,,1/6,2/5,3/4,3/4,,1/2,,7/8,6,6,5,5,7-3[4:1],,,,,1,1,2/8,,1/7,1/7,2/6,2/6,3/5,3b/5b,,
{2}8hx[2:3],,,,5<8[2:1],,4>1[2:1],,{4}7/8,7/8,6/7,6/7,5/6,5/6,4/5,4/5,3/4,3/4,2/3,2/3,1/2,1/2,1b/8b,,{8}2/4,2/4,2/4,2/4,,5/6,5/6,5/6,,8/7,8/7,8/7,,1/6,1/6,,7/5,7/5,7/5,7/5,,4/5,4/5,4h[8:3]/5h[8:3],,,,,3/4,,1/2,,{1}8<1[4:5]/1>8[4:5],,{8}1/2,1/2,3/8,4x/7x,,7/8,7/8,1x/6x,,3/4,3/4,5x/2x,,1/8,2b/7b,,
{16}1/8,,3,4,2,,6,5,7,,3,4,2,,1x/5x,,,,6/8,,{8}6/8w4[8:1]b,,,,,7h[4:1],,8,8,7,1/6>3[8:1],,,2h[4:1],,1,1,2,8/3,,1/6,1/6,,7,7,5,5,4,4,2,2,7,7,,{16}1,8,1,8,1,,,,{8}8/7,8/7,6/1,5x/2x,,2/1,2/1,8x/3x,,6/5,6/5,4x/7x,,8/1,7b/2b,,{16}8/1,,6,5,7,,3,4,2,,6,5,7,,8x/4x,,,,2bx/1bx,,,4bx/6bx,,,7bx/8bx,,,3bx/5bx,,,1bx/8bx,,{8},,1/2h[4:1],,4,,3/5,3/5,,,5/6h[4:1],,8,,7/1,7/1,,6-1[8:1]*-8[8:1],6,,,2-5[8:1]*-4[8:1],2,,,7-2[8:1]*-4[8:1],7,,,1x/5x,1x/5x,,{12}2h[12:2],,4h[12:2],,5h[12:2],,7h[12:2],,1h[12:2],,3h[12:2],,{2}5bh[2:1],Cf/B4/E4/E5,
{1}7x-5-8-4-1-3[4:11],,,,4-6-3-7-2-8[4:11],,,{8},,,,4/5,,,,3hx[4:1]/4hx[4:1],,,,3,3,4,,6hx[4:1]/5hx[4:1],,,,6,6,5,,5hx[4:1]/4hx[4:1],,,,4,4,5,,4/5,4/5,3/6,3/6,2/7,2-5[8:1]/7-4[8:1],,,,,2/4,,5/7,,1/8,,{12}1x,1x,1x,8x,8x,8x,{8}2x-6[8:1],,,,7,7h[8:3],,,5,5,,4/6,,4/6,3/7,2bh[8:3]/8bh[8:3],,,,,
{8}1w5[8:1],,,,2-4[8:1],2,8-6[8:1],8,1-5[8:1],1,7,,4/6,,1/2,,8-4[8:1],8,2-5[8:1],2,7-4[8:1],7,1-5[8:1],1,6,,4/7,4/7,,5/6,,8/7,8-4[8:1]/7-4[8:1],,,,1-5[8:1]/2-5[8:1],,,,6,6,8,8,1,1,3,,1-5[8:1]/2-5[8:1],1/2,,,8-4[8:1]/7-4[8:1],8/7,,,1/2,,4>1[8:1]b/8<5[8:1]b,4/8,,,,,2-5[8:1]/6-1[8:1],,,,7-4[8:1]/3-8[8:1],,,,1h[2:1],,,8x,8x,,2/7,,1,1,8,8,{16}2,3,4,5,6,,,,{8}8,8,1,1,{16}7,6,5,4,3,,,,{8}1,1,8,8,2,2,7,7,{1}1pp5>2[4:5]*qq5<8[4:5],,{16}2/7,,,,1bx,8bx,1bx,8bx,1bx,8bx,1bx,8bx,1bx,8bx,1bx,8bx,2bx,3bx,2bx,3bx,2bx,3bx,2bx,3bx,2bx,3bx,2bx,3bx,2bx,3bx,2bx,3bx,{1}2bx<3[4:15]b,,,,C,E
MASTER
(202)
{1}A1/A2/A7/A8/B1/B2/B3/B6/B7/B8/Cf/D1/D2/D3/D7/D8/E1/E2/E3/E7/E8,
{8}5bx/7bx,5bhx[8:3]/7bhx[8:3],{2},{8},3,4bx/2bx,4bhx[8:3]/2bhx[8:3],{2},{8},
5,4bx/6bx,4bhx[8:3]/6bhx[8:3],{2},{8},4,5bx/3bhx[8:3],,,{16}5,4,{4}6bhx[4:1],5,
{8}2bx/4bx,2bx/4bx,24,,35,,4,6,7bx/5bx,7bx/5bx,75,,64,,5,3,
{16}2bhx[16:3]/4,,,3bhx[4:1],,,4bx,,6bhx[16:3],,,5bhx[16:3],,,4bx,,{4}Ch[2:1],,,1x/8x,
{8}3x/7,6,5,4x/7,6,5,4x/8,5,6,4x/7,5,6,5h[8:1]/7,{24}E7,B6,B5,{8}E5,,
2x/4x,3,3,7x/5x,6,6,{16}3,4,3,4,2bhx[8:1],,,1bhx[8:1]/3bhx[8:1],,,{8}4bx/8bx,
{2}5bx-1[8:1]/7bx-5[8:1],{1}A3/A4/B2/D2/D4/E2/E3f,{8}46,,3,3,{4}24,1-5[8:1]/8,
1b/7-4[8:1],7/2-6[8:1],2/8-4[8:1]b,{8}38,2,15,,47,47,{16}6,5,,5,{8}6,57,
4h[8:1]/8h[8:1],,2h[8:1]/6h[8:1],,15,{16}2,4,3,,45,,6,,6,5,{8}7-3-6-4[8:3],8,{2}1b,
{4}2b-6[8:1],2/8-4[8:1],8/1-5[8:1]b,{8}16,7,84,,16,25,{16}3,4,,4,{8}2,2,
1bh[8:1]/2bh[8:1],,18,18,7bh[8:1]/8bh[8:1],,1-6V42[8:3]/6,25,{2},{4}2x/8x,{16}18,7,6,5,
{4}4/2b-8[8:1],2-4[8:1]/5,26,{16}7,5,7,5,{4}7b-1[8:1]b,7-5[8:1]b/1,{8}74,3x,2x-5[8:1]*-6[8:1],,
2,,7,7,{16}7,8,6,,15,,15,,2,4,3,,46,,46,,{24}7,5,7,{8}5,4b/8b,,
3-5[8:1]/7,6,{4}3-8[8:1]/5,3/6-4[8:1],2/6-1[8:1],36,{8}28,37,{24}6,4,6,{8}4,3b/7b,,
26,{24}3,5,3,{8}5,26,{12}7x,8x,6x,2x,1x,3x,{8}8V64[4:1],,1,1,,12,3b/8b,,
7h[4:1]/8,,1,7h[4:1]/1,,1,6h[4:1]/1,,2,5h[4:1]/2,,3,{2}2^5[8:1]/4-1[8:1],
{16}4bx/7bx,,6,5,6,,4bx/8bx,,7,5,6,,4bx/5bx,,3,4,3,,1bx/5bx,,2,4,3,,{4}5bx^3[8:1]*^8[8:1]b,5bx,
1bhx[6:1]/2bhx[6:1],3x/8x,8bhx[6:1]/7bhx[6:1],{12}6x/1x,,3,
5b,1,7,3b,5,1,7b,5,6,2b,4,3h[24:5],{8},8,,{16}7,8,7,,{4}1/6^1[8:1],Ch[8:5],,{8},{4}E1,E8,
{1}1h/E7f,2h,3h,4h,{512}5h,4b,{256},{128},{64},{32},{16},{8},{4},{2},
{1}6h,{64}7h,Chf[64:55],{32},{16},{4},{2},8,{8},{4}1V35[4:1],7,
6h[1:1],,5,4,3h[1:1],5,4,5,4h[2:1],3,{8}2,{4}2-8[8:1],2b/6-4[8:1],6b,{8}3,3,{16}2,1,{4}2x,
3h[4:1]/8-5[2:3]b,,3,{8}4,4,,2,2,,4,3,2h[4:1],,E8f,{2},
{8}2b/8b,3b/7b,4b/6b,,38,38,{16}2,1,3,8,4,7,{4}5b/6b,
{1}4h[1:2]/5-8[8:1],,6h[8:11],{4}2h[8:3],,26,35,
{16}4,6,4,6,4,6,4,6,4,6,4,6,4,6,4,6,3,5,3,5,3,5,3,5,2,4,2,4,2,4,2,4,
1b,5,1,5,1,5,1,5,1,5,1,5,1,5,1,5,8,4,8,4,8,4,8,4,8-4[8:1],1,2,3,{8}48,,
1/2bx,1bx/2,1/8bx,7bhx[4:1]/8,,8bx,1bx/6,2/5bx,,3bx/4,2/5bx,1bx-5[8:1]b/6,,8bx,,,
5/6bx,5bx/6,4/7bx,3bhx[4:1]/8,,4bx,2bx/5x,1hx[4:1]/6bx,,8bx,{4}2bx/7bx,
4b-8[8:1],4b>5[1:1]b,{1},{2}E5f,{24}18,27,36,45,,,{8}1b/7b,,
2b/6b,3b-8[8:1]/7b-4[8:1],3b/7b,3b/7b,,1b/2b,3b/8b,4b/7b,,
8b/7b,6b/1b,5b/2bh[4:1],,1b,4b/7b^4[8:1],,
7b-3[8:1],{16}3,3,7,,2,2,{8}7-4[8:1]b,8^3[8:1]b,7,8,,
56,{4}4>6[16:3]/7h[8:5],4b,{24}5x,4x,3x,{8}2x-6[8:1]b,,
1-7[8:1],1,5,{16}4,4,{8}6,3b/5b,1b/7b-3[8:1]b,,8-2[8:1],8,4,{16}5,5,{8}3,6b/4b,8b/2b,,
17,17,2,34,{16}5,4,5,,26,,1x-5[8:1],2x/8x,{8}3x/7x-4[8:1],1b,7b,2,2,4b/8b,,
2b/6b,3b-8[8:1]/7b-4[8:1],3b/7b,3b/7b,,5b/6b,4b/7b,1b/2b,,
4b/3b,5b/2b,8b/7bh[4:1],,4b,1b/2b^5[8:1],,
2b-6[8:1],{16}6,6,2,,7,7,{8}2-5[8:1]b,1^6[8:1]b,2,1,{48},,,,,,,
{16}3h[48:5]/4bh[48:5],,,{6}1h[48:5]/2bh[48:5],
{16}7h[48:5]/8bh[48:5],,,{16}5h[48:5]/6bh[48:5],,,{4}4b/7,
{16}3,4,2,5,1,6,8,7,1,6,8,7,{4}1b/6b,{16}5,4,6,3,7,2,8,1,7,2,8,1,{8}2b-5V38[8:3]/7b,,
1b,8b,7b-4V62[8:3],,1b,2b,3b-8V25[8:3],,4b,5b,6bh[4:1],,8b,1b/7b,,
{6}3h[12:1]/8h[12:1],3h[12:1]/8h[12:1],4h[12:1]/7h[12:1],3h[12:1]/6h[12:1],
2h[12:1]/5h[12:1],3h[12:1]/6h[12:1],{24}4,5,4,5,4,5,4,5,4,5,4,5,
{2}4bq5[4:5],{1},,6h[2:3],{4}4h[2:1],,,45,
{2}3/4-6[4:1],2-8[4:1],4^6[4:1],2^8[4:1],{4}4h[2:3],E1,C,E5,E6,E7,B8/E8,,
{16}3h[16:3],,,4h[16:3],,,{8}2h[8:3],E4,E5,E6,,{16}6h[16:3],,,5h[16:3],,,{8}7h[8:3],E6,E5,E4,,
{16}3h[16:3],,,4h[16:3],,,{8}2h[8:3],E4,E5,E6,,3x/5x,1x/7x,4x/6x,1x/8x,4x/5x,{4}E3/Cf/E7,1b/8b,
{8}7-4[8:1],8,7,2-5[8:1],1,2,,{12}6,6,6,5,5,5,{4}4,3b/5b,
{16}23,,23,,1,8,1,,67,,{4}6-3[8:1]/7-2[8:1],E3/Cf/E7,{8}1x,1x,2x/8hx[4:1],,{16}1,7,2,6,3,5,
{4}4w8[8:1]b,4b,{16}26,3,4,5,8,7,6,5,43,,52,,7,8,7,,16,,2,1,3,,48,,
5,7,5,7,5,4,3,2,8,7,6,5,1,,1,,2b,8b,2b-5[8:1],8b,2b,8b,{4}2x/7x-3[8:1],17,{8}2b/8b,
3b/7b,,8,17,26,{16}3,5,1,,6,4,8b^2[8:1]b,,2,3,4/8b-6[8:1]b,,3,4,
5/8b-4[8:1]b,,2,3,{512}4/8b,Cf,{256},{128},{64},{32},{16},{8},
1b/7b,,{16}7,8,6h[8:1],,3,4,2,5,3,4,2,5,{4}3h[4:1],{24}1,8,7,{4}6h[8:3],{24}5,4,3,{4}2bq5[8:3],
Cf,,{16}7,8,6,1,5,2,4,3,{2}Ch[2:1],{8}1x,1x,2x/8x,,
1b/6b,16,78,12,37,{16}6b,4b,{8}8b,17,3b/5b,35,12,78,26,{16}3b,5b,{8}1b,38,
1b/2b,{24}12,38,47,{8}56,37,{12}2,2,1,{4}3-6[8:1]b/8-5[8:1]b,{1}3b>3[2:3]b/8b>8[2:3]b,,{4},
{24}1bx,8bx,1bx,8bx,1bx,8bx,1bx,8bx,1bx,8bx,1bx,8bx,1bx,8bx,1bx,8bx,1bx,8bx,
1bx,2bx,3bx,4bx/1bx,2bx,3bx,4bx/1bx,2bx,3bx,4bx/1bx,2bx,3bx,4bx/1bx,2bx,3bx,4bx/1bx,2bx,3bx,
4bx/1bx-5[8:1]b,2bx,3bx,4bx/1bx,2bx,3bx,{1}4bx/1bx^2^3^4^5^6^7^8^1[4:13]/B1/B5/Cf,,,,1b,,,,E
Re:MASTER
- 追加しました。修正等ありましたらよろしくお願いします。 -- けもがみ (2025-08-31 04:47:19)
- EXPERT譜面を追加しました。修正等ありましたらよろしくお願いします。 -- Sugar (2026-04-20 17:58:39)
最終更新:2026年04月20日 17:58