BASIC
ADVANCED
EXPERT
MASTER
(176)
{4}3V15[4:3]/4,,,5^8[2:1],,8V26[4:3],,,6V84[4:3],,,4^1[4:2],,1v3[2:1],,,
4h[4:3],,,2h[2:1],{16},,,{32}4,5,{4}6h[4:3],,,4h[4:3],,,7h[2:1],{16},,,{32}4,5,{4}6h[2:1],,8b,
{12}47,,6,5,,25,,3,4,,61,,7,8,6,,3,4,
2,,,18,,,{16}56,,,45,,,34,,{12},25,25,{8}25,,46,46,35,3b/5b,
{16}2,4,2,4,2,4,2,4,3,4,3,4,3,4,3,4,3,5,3,5,3,5,3,5,4,5,4,5,4,5,4,5,
4,6,4,6,4,6,4,6,5,6,5,6,5,6,5,6,47,,6,5,,3,4,,{4}4-1[8:1]/5-8[8:1],4b/5b,
2q5[2:1],{8},5,{16}5V31[16:3],,,7,,,8,,8V64[16:3],,,2,,,{8}3,,35,,6,
6q1[2:1],,,1,{16}1V75[16:3],,,3,,,4,,4V28[16:3],,,6,,,{8}7,,17,26,,
3-8[8:1]/5,{16},4,{8}3,5,1/6^3[8:1],78,16,,2-5[8:1]/4,{16},1,{8}2,8,4/7^2[8:1],56,47,,
3-7[8:1],,34,5,6V84[4:1],{16},8,{8}6,2,3V51[4:1],{16},5,{8}3,8,8,2,{4}3b/7b,
1pp6[8:11]/5,,,B2/B3/E3,,,5,, 7pp3[8:11]/8,B1/B8/E1,,,{8}5h[4:1],,,5h[4:1],,,{4}24,
3pp6[1:1],6,{8}7,7,,8,,1,1,,58,58,47,47,
5p8[4:1]/6,,7,,6,6^1[4:1],,8,,5,5h[4:1],,8,{16}7,7,{4}6,
7-2[2:3],{8}4h[16:1],4h[16:1],4h[16:1],4h[16:1],4h[16:1],4h[16:1],
5h[16:1],5h[16:1],5h[16:1],5h[16:1],5h[16:1],5h[16:1],{4}5,
1h[2:1]/5,{8}6,5,4-8[8:1],3,48,,17,{16}6,5,{8}6^1[8:1],47,,3,3,,
{16}2,1,2,,3,4,3,,D3,D2,D1,D8,D7,D6,D5,D4,1x,1x,{8}2x,38,4,56,7,84,7,
64,2,35,7,64,1,35,8,{16}E2,E3,E4,E5,E6,E7,E8,E1,E2,E3,E4,E5,{12}C,,,
8,,1,1,7,,8,8,6b,{8},,E3,,,E4,,,B5/E5,,,B7/E7,,,
{16}A4/D5/E5/Ch[4:3],,,A3/D3/E3,,,A1/D2/E2,,,A8/B8/D8,,,{8}A6/D7/E7,,,{16}8,,,1,,,
{4}2-7[4:1],2h[4:1],,6-3[4:1],6h[4:1],,2<6[4:1]*v4[4:1],,,3bh[2:1]/7bh[2:1],,,
{8}2<5[4:1],1h[8:3]/3,{2},{8}7>4[4:1],8h[8:3]/6,{2},{16}1h[8:1]/4h[8:1],,,3h[8:1]/6h[8:1],,,58,,
{4}5/8h[4:1],6h[4:1],4bh[4:1],3,{16}2-7[4:1]/5V36[4:1],,,25,{4},,58,
{16}6-1[8:1],,5,5,6,,3,,2-5[8:1],,1,1,2,,8,,
4/7-5[8:1],,3,3,7-4[8:1],,2,2,7-3[8:1],,1,1,7,,8,,
{24}1b,4,1,4,1,4,1,4,1,4,,,2b,5,2,5,2,5,2,5,2,5,,,{6}36,36,{12}45,45,{2}4h[4:1]/5h[4:1],
4^1[8:1]/5^8[8:1],{32}2,3,4,5,6,7,8,1,{4}2-5[8:1]/6v1[8:1],
2b/6b,{8}48,4/8p4[8:1],,8/2p6[8:1],3,24,
{4}5-2[8:1]*-8[8:1],5,{16}3h[8:1]/7h[8:1],,,4h[8:1]/8h[8:1],,,15,,
{4}2-7[8:1]/6-3[8:1],2b/6b,{8},48,{4}4/8V63[4:1],
3V57[4:1],2,{16}1h[8:1],,,2h[8:1]/8h[8:1],,,{8}3-5v8[4:1]/7,
46,,7-3[8:1],7,1-4[8:1]*-6[8:1],1,{4}1>8[4:1],
15,,{8}78,1-5[8:1]/6-8[8:1],25,1b/6b,,{16}47,,6,5,6,,3,4,{8}2,17,,
2-4[8:1],{16}6,6,{8}2,8,5-1[8:1],{16}7,7,{8}5,6,
2-6[8:1],{16}5,5,{8}2-4[8:1],4,2,{16}7,7,{8}1,,
6-4[8:1],{16}2,2,{8}6,1,3-7[8:1],{16}2,2,{8}3,1,{4}2<4p3[2:1],Cf,{2},
{8}3V17V13[2:1],3,4,{32}B5,B6,{16},{8}4,4,4,,6V82V86[2:1],6,5,{32}B4,B3,{16},{8}5,5,5,,
{16}7,6,5,4,1,2,3,4,{32}8,7,6,5,4,3,2,1,8,7,6,5,{2}4b/1b,{8}B6/B7/E6/E7/E8,,,B2/B3/E2/E3/E4,,
{12}7,5,7,5,6,2,4,2,4,3,6,5,6,5,4,3,4,3,{4}25,47,
1h[4:1]/B5f/E5/E6,{16},,28,37,4p8[8:1]/6,,,5,4,,6,,
6p2[8:1],,,7,6,,{4}8-3[8:1]*-4[8:1],8,{16}25,36,
{4}4-1[8:1]/7,4-7[8:1]/6,4V28[16:3]/2,46,
{16}7p3[8:1],,,8,7,,{4}2h[8:1],{16}4,3,{8}25,,
3^8[8:1]/7,48,{24}37,6,5,{8}4V61[16:3],,48,3,,
4/8v5[8:1],57,{24}48,3,2,{8}1V37[16:3],,16,{4}4,
1-4[8:1]/5-8[8:1],15,{16}3h[8:1]/7h[8:1],,,1h[8:1]/2h[8:1],,,37,,
5h[8:1]/6h[8:1],,,7h[8:1]/8h[8:1],,,26,,{4}2-7[8:1]/6-3[8:1],2b/6b,
{16}15,,2,4,3,,6,5,7,,2,1,3,,7,8,{8}6,35,1,28,3-8[8:1],7-4[8:1],3,7,
{16}1,1,{8}5,2-4[8:1]/6-4[8:1],17,{4}2-8[8:1]/6-8[8:1],26,
{8}1x-3[8:1],1x-4[8:1],1x-5[8:1],1x-6[8:1],1x^4[8:1],1x,1x,,
{16}8b,7,6,5,8b,7,6,5,1b,8,7,6,54,3,2,1,8/4b,3,2,1,4b,3,2,1,5b,4,3,2,15,84,73,62,
{4}5^8[8:1]/1^4[8:1],51,{6}37,56,34,{12}2,2,4,5,5,7,2,2,8,{4}37,
2h[2:1]/4bhx[8:9],,{16},,,{32}2,1,{4}8h[1:1],,3h[8:11],,{16},,,{32}1,8,
{4}7bh[8:9],,,2h[8:7],{16},,,{32}8,7,{8}6h[8:3],,,{48},E3/E7,B3/B7,B4/B8,E5/E1,,{4},
{12}2,6,2,6,2,8,4,8,4,8,2,4,6,4,2,8,6,8,
{4}2h[4:1],4h[4:1],{16}6,,,57,,,17,,{12},26,26,{4}2h[8:5]/6,
{8}D5f/E5,D3f/E3,D1f/E1,D7f/E7,{24}2,4,2,4,,,{1}1p3[1:1]/5p7[1:1],{2},
{16}1b/8b,1b/8b,1b/8b,{1}1b/8b,,,,E
Re:MASTER
- 追加しました。修正等ありましたらよろしくお願いします。 -- けもがみ (2025-08-31 04:50:02)
- CiRCLE ver.にて、MASTER譜面の{16}6,,,57,,,{4}17,{16}26,26,{4}2h[8:5]/6,→{16}6,,,57,,,17,,{12},26,26,{4}2h[8:5]/6,の箇所の修正が行われたため、修正後の譜面に修正しました。 -- けもがみ (2026-05-13 08:57:47)
最終更新:2026年05月13日 08:57