アットウィキロゴ

Ref:rain (for 7th Heaven)

アーティスト カモメサノエレクトリックオーケストラ include Limonène

BPM BASIC ADVANCED EXPERT MASTER Re:MASTER
188 4 8 12 14 -

EXPERT MASTER Re:MASTER
譜面制作者 きょむりん & Luxizhel Jack + Soma -

BASIC

(188){4}1,,,,,,,2,,,,,,,3,,,,,,,4,,,,,,,5,,,,,,,6,,,,,,,7,,,,,,,1/8,,,,,,,{8}8bx,,,8x,,,8x,,,,,,,,7,,,7,,,7,,,,,,,,6,,,6,,,6,,,,,,,,5,,,5,,,5,,,,,,,,4,,,4,,,4,,,,,,,,3,,,3,,,3,,,,,,,,2,,,2,,,2,,,,,,,,1,,,1,,,1/8,,,,,,,,

{4}1h[8:7]/2h[8:7],,,,,,,3h[8:7]/4h[8:7],,,,,,,5h[8:7]/6h[8:7],,,,,,,8h[8:7]/7h[8:7],,,,,,,{4}8,,8,,8,,,7,,7,,7,,,6,,6,,6,,,5,,5,,5,,,4,,4,,4,,,3,,3,,3,,,2,,2,,2,,,1,,1,,1,,,8,,8,,1/8,,,1,,1,,8/1,,,1-5[8:5],,,,,,,8-4[8:5],,,,,,{1},

{8},B1,,,,,,,B8,,,,,,,B2,,,,,,,B7,,,,,,,Cf,,,,,{1},1x/8x,{2}2,2,1/2,,7,7,7/8,,1,1,{4}1/8,,,1x-4[1:1]/8x-5[1:1],{1},,{4}6x,6x,,4/5,4/5,,3,3,,4/5,4h[8:3]/5h[8:3],,{1},

{4}3hx[4:3]/4hx[4:3],,,,,,,1h[4:3]/2h[4:3],,,,,,,8h[4:3]/7h[4:3],,,,,,,5h[4:3]/6h[4:3],,,,,,,{1}B5,B4,B6,B3,{4}E8/B7,,,,,,,E2/B2,,,,,,,E5/B5/B4,,,,,,,B2/B7/Chf[2:5],,,{1},,,,,{4},

{4}2-6[4:3],,,,,,,{2}7,7,8,8,7-3[4:3],,,,2,2,3,3,4,4,5,5,6,6,5h[8:9]/6h[8:9],,,,{8},6x-1[4:3],,,,,,,{2},,2,2,3,3,4-8[4:3],,,,7,7,6,6,5,5,4,4,3,3,4h[8:9]/5h[8:9],,,,{8},4/5,,,,4/5,,,,

{4}4,4,4,,3/4,,3/4,,2,2,2,,1/2,,1/2,,8,8,8,,7/8,,7/8,,6,6,6,,5/6,,,,{8},{4}5x,5x,5x,,5/6,,5/6,,7,7,7,,8/1,,8/1,,2,2,2,,1/2,,1/2,,3,3,3,,4/5,,,

{8},{4}5x-1[8:5],,,,,,,2-5[8:5],,,,,,,6-1[8:5],,,,,,,2-6[8:5],,,,,,{8},,B8/B7,,,,,,,B5/B6,,,,,,,B4/B3,,,,,,,B1/B2,,,,,,,E4/B3/B4,,,,,,,E6/B6/B5,,,,,,,Ch[1:1],,,,,,,,,,,,,,,,{4}1b,1,1,,1/2,,,3,3,3,,3/4,,,,5,5,5,,5/6,,,,7,7,7,,7/8,,,,2,2,1/2,,7,7,8/7,,1,1,8/1,,8/1,8/1,8h[8:5]/1h[8:5],,,,,,{8},{4}8bx,8x,7,7,5/6,5/6,,4,4,3,3,2,2,1/2,,1,1,2,2,3,3,3/4,,5,5,6,6,7,7,7/8,,1,1,1/2,,8,8,7/8,,1,1,1/8,,{4}1-4[4:3]/8-5[4:3],,,,,,,,4/5,4/5,,,3/6,3/6,,,2/7,2/7,,,1/8,1hx[8:25]/8hx[2:9],E

ADVANCED

(188){4}1x-5[4:3],,,,,,,7-3[4:3],,,,,,,2-6[4:3],,,,,,,8x-4[4:3],,,,,,,3-8[4:3],,,,,,,7-4[4:3],,,,,,,2xq5[1:2],,{1},,,{4}5x,5x,5x,5,5,5,,6,6,6,6,6,6,,7,7,7,7,7,7,,8,8,8,8,8/1,8/1,,1,1,1,1,1,1,,2,2,2,2,2,2,,3,3,3,3,3,3,,4,4,4,4,4/5,4/5,,

{8}3hx[8:7],,,,,,,4,{4},,,{8}2hx[8:7],,,,,,,1,{4},,,{8}7hx[8:7],,,,,,,8,{4},,,{8}6hx[8:7],,,,,,,5,{4},,,6,6,6,,5/6,5/6,,7,7,7,,8/7,8/7,,1,1,1,,1/2,1/2,,3,3,3,,4/3,4/3,,4,4,3,3,1/2,1/2,,8,8,7,7,5/6,5/6,,5,5,6,6,7/8,7/8,,1,1,2,2,3/4,3/4,,3/4,3/4,2,2,1/8,1/8,,
7/8,7/8,6,6,5/4,5/4,,6/5,6/5,7,7,8/1,8/1,,2/1,2/1,3,3,4/5,4/5,,

{2}3xpp6[4:9],,,,,,,7pp4[4:9],,,,,,,{4}B2,B3,B4,,B7,B6,B5,,B2,B3,B4,B5,B6,B7,C,,B8,B7,B6/B5,,B1,B2,B3/B4,,B7,B6,B5,B4,Cf,,,,1,8,7,6,5,4,3,2,1,8,7,6,{1}4x/5x,

{4}3h[4:3],,,,,,,4h[4:3],,,,,,,5h[4:3],,,,,,,6h[4:3],,,,,,,6,6,5/6,,7,7,1/8,,2,2,1/2,,3,3,4/5,,{8}4x/6x,,,4x/6x,,,4x/6x,,,4/6,,,,,5x/3x,,,5x/3x,,,5x/3x,,,5/3,,,,,4x/6x,,,4x/6x,,,4x/6x,,,4/6,,,,,5x/3x,,,5x/3x,,,5x/3x,,,5/3,,,3h[8:3]/5h[8:3],,{4},,,B2/B3/B6/B7/Cf,{1},,,

{4},4x/5x,{8},,,2bx/4bx,,,2bx/4bx,,,2bhx[8:3]/4bhx[8:3],,,,,,,{4}3,2,1,8,7,6,6,,{8},,,7bx/5bx,,,7bx/5bx,,,7bhx[8:3]/5bhx[8:3],,,,,,,{4}6,7,8,1,2,3,3,,,{8},,2bx/4bx,,,2bx/4bx,,,,,7bx/5bx,,,7bx/5bx,,,,,,2bx/4bx,,,2bx/4bx,,,,,4x/5x,,,4x/5x,,,,,3x<6[8:7],,,,,,,,,,,,,{4}7x,7,8,8,1,1,1/2,1/2,,3,3,3,3,2,2,2,2,1,1,1,1,7/8,7/8,7/8,,{2}6hx[1:1],5,5,4/5,3hx[1:1],4,4,5-8[4:3]/4-1[4:3],,,1hx[2:1]/8hx[2:1],,1>4[1:1]/8<5[1:1],,,,

{4},,6,6,6,,7,7,7,,8,8,8,,1,1,1,,2,2,2,,3/4,3/4,,{8}3,3,3,,2,,2,,1,1,1,,7/8,,,,6,6,6,,7,,7,,8,8,8,,2b/1b,,,,2,2,2,,3,,3,,4,4,4,,5/6,,,,7,7,7,,6,,6,,5,5,5,,4/5,,,3xV15[8:19]/6xV84[8:19],,,,,,{4},,,,,,,,,,,6qq1[8:19],,,,,,,,,,,,,,2qq5[8:19],,,,,,,,,,,,,,{8}6h[8:7],,,,,,,5h[8:7],,,,,,,4h[8:7],,,,,,,3,,,{4},,,

{4}3,3,2,2,1/2,1/2,,8,8,7/8,7/8,5/6,5/6,4/7,,6,6,5/6,5/6,7,7,7/8,7/8,1,1,1/2,1/2,4/3,4/3,5/2,,{8}3,3,3,,3/4,,,,2,2,2,,2/1,,,,8,8,8,,8/7,,,,6,6,6,,5/6,,,,4hx[4:3]/5hx[4:3],,,,,,,,,{4}6x,7x/8x,7x/8x,{8}1,1,1,,1/2,,1/2,,3,3,3,,1/2,,1/2,,8,8,8,,7/8,,,,7,7,7,,5/6,,5/6,,4,4,4,,3/4,,3/4,,2,2,2,,3/4,,3/4,,5,5,5,,5b/6b,,,,

{8}7,7,7,,7/8,7/8,7/8,,6,6,6,,6/5,6/5,6/5,,4,4,4,,3/4,3/4,3/4,,2,2,2,,1/8,,,,2,2,2,,1/2,1/2,1/2,,3,3,3,,3/4,3/4,3/4,,5,5,5,,5/6,5/6,5/6,,7,7,7,,8xV26-4[8:23],,,,{1},,,{8},,,Ch[8:11],E

EXPERT

(188){4}1hx[2:3],,,,,,,7hx[2:3],,,,,,,2x-7[4:3]/6bx-3[4:3]b,,,,,,{8},,8,8<5[2:1],,,,,,3hx[8:3],,,,,,,,,,,1x<6[4:3]/2x>5[4:3],,,,,,,,,,,,6,,5,,4,4,3h[4:1],,,,,3,3,5,4,,6,6,4h[4:1],,,5,5,3,3,7,7,5,5h[8:1],,,,1x,1x,,2x/8x,,3>5[1:1]/7x,,,Cf,,,,,,,,

{8},,,,,,3,4,2,,1,1,,6,5,7,,8,8,,3,4,2,,1,1,,7,5,6,,8,8,,2,2,4,3,5,,5b/6b,,7b/8b,,1b/2b,,3b/4b,,2b/5b,,3h[4:1],,1,1,,7/5,,6h[4:1],,8,8,,2/4,,3h[4:1],,1,1,,7/5,,6h[4:1],,8,8,,3/1,,2h[4:1],,4,4,,6/8,,7h[4:1],,5,5,,3/1,,2h[4:1],,4,4,,5/7,5/7,,6b/4b,,5b/3b,,

{4}2,2>6[4:3],E5,,,8,8,2,2>6[4:3],E5,,,8,8,7,7<3[4:3],E5,,,1,1,7,7<3[4:3],E5,,,,,2,2>6[4:3],E5,E4,E3,E2,D1,2,2>6[4:3],E5,E4,E3,E2,D1,7,7<3[4:3],E5,E6,E7,E8,D1,7,7<3[4:3],E5,E6,E7,E8,D1,{8}6,,7h[4:3],,5,,5,,5,,4,4,5,5,3,,2h[4:3],,4,,4,,4,,5,5,4,4,6,,7h[4:3],,5,,5,,5,,4,4,5,5,3,,2h[4:3],,4,,4,,4,,5,,4x/6x,,{16}7h[16:3],,,5h[16:3],,,6,,6,,,,2,,2h[16:3],,,4h[16:3],,,3,,3,,,,7,,7h[16:3],,,6h[16:3],,,5,,5,,,,2,,2h[16:3],,,3h[16:3],,,4,,4>5[8:11],,{4},,,,,,,,Ch[1:1],,,,,,1/2,2>5[4:1]/1q6[4:1],,{8},7/8,,7b-3[8:1]/8b-4[8:1],,,,,,,2,2,4,,6,6,5>2[4:1]*<8[4:1],,,,,,1/2,,2b>5[4:1]/1b<6[4:1],,,,,7/8,,8p1[4:3]/7<1[4:3],{4},,,,,,2-4[4:1],,8-6[4:1],,1-5[8:3],,{8},7,7,,4/6,4-8[8:3]/6-2[8:3],,,,,,,,,2-6[4:1],,,,7-3[4:1],,,,,2,2,,8,,3h[4:1]/7h[4:1],,,2h[4:1]/6h[4:1],,,1h[4:1]/5h[4:1],,,8h[4:1]/4h[4:1],,,3V57[2:1]/7V13[2:1],,,,,,,,,,2h[4:1]/6h[4:1],,,,2/6,,1/7,1/7,1b/7b,,2,2,1,3,6,4,7,7,8,6,3,5,1,1,4,4,3,3,8,8,5,5,7,7b,

{4},,,2<4p1[2:5],{1},,,{4}1/8,7qq3<8[2:5],{1},,,{4}2/6,1qq1>4[2:3],7h[2:3],,,,,,,,5h[2:3]/6qq8[4:5],,,,,,,1x,{8}5/8,5/8,,4/7,4/7,,3/6,3-1[4:1]/6-4[4:1],,,,,,,4/1,4/1,,5/2,5/2,,6/3,6-8[4:1]/3-5[4:1],,,,,,,5/7,5/7,,4/5,4/5,,2/4,2<7[4:1]/4,,,,,,,6/7,6/7,,1/8,1/8,,2/3,2/3,,1/8,1/8,,{16}2bx/7bx,,,4bx/5bx,,,3bx/6bx,,{4},,{1}B1/B3/B4/B5/B6/B7/B8/Cf/B2,,,

{4}7/8,5-2[8:1]b/6-1[8:1]b,,,{8},B2f/E3,,,B8f/E1,,,E7/B6f,,,{8}8,,1/7,,2/6,,3,3,5,,7,,5/6,,2,,4-7[8:1]b/3-8[8:1]b,,,,,,,E7f/B7/B6,,,E1f/B8/B1,,,B2/B3/E3f,,,1,,8/2,,7/3,,6,6,4,,2,,4/3,,5/6,,7<4[4:1]b/8p3[4:1]b,,,,,,,,A3f/E4/B3/E3,,,A7f/E8/B7/E7,,,,,A6f/E6/B6/E7,,,A2f/E2/B2/E3,,,,,,A6f/D7/D6/E7/B6/E6/B7/B5,,,A3f/D3/D4/E3/B3/E4/B2/B4,,1x/8x,,5/7,5/7,,4/2,4/2,,3/5,3>1p8<6[8:9]/5,{1},{8},,,,,,6,5,7h[4:1],,5,,4/5,,3,4,2h[4:1],,4,,3/4,,2V46[8:3]/5h[2:3],,,,,,,,6,,7,,8,,1,,2,4,3h[4:1],,1,,8,,7,5,6h[4:1],,8,,8,,7V13[8:3]/1h[2:3],,,,,,,,3,,2,,8,,7,,6,,5,,4,,3,,2,2h[4:1],,3h[4:1],,4,4,,6,6h[4:1],,5,,1/8,1/8,,4/7,,5/6,5-1[4:1]/6-1[4:1],,,,,,,2/4,2<7V13[4:7]/4h[1:2],{1},,{4},,3/4,1/2,7/8,5/6,4<1[8:5],,,,,3,2h[4:1]/4h[4:1],,{8}6,,5/7,5/7,,4/2,4/2,,4/5,,7,7,5,6,1,8,2,4,3b,,2-5[4:1],,,,7-4[4:1],,,,2,2,4,3,7,7,5,5,6-1[4:1],,,,3x-8[4:1],,,,6,6,1,8,2,2,4,3,5,5,4/6,,3/7,,2/8,,8-4[8:1]/2-4[8:1],,,,1-5[8:1]/7-5[8:1],,,,7-4[8:1]/8-4[8:1],,,,1-5[8:1]/2-5[8:1],,,,6,6,4,4,3/5,3/5,,

{8}6b,6,5,4,3,4,5,6,6,5,4,3,4,5,6,6,5,4,3,4,5,6,6,5,4,3,4,5,6,6,5,4,3,4,5,6,6,5,4,3,4,5,6,6,5,4,3,4,5,6,6,4,3,,3/4,,2,2,1,8,7,8,1,2,2,1,8,7,8,1,2,2,1,8,7,8,1,2,2,1,8,7,6,,4bhx[8:5]/7bhx[8:5],,,,,,,3bhx[8:5]/6bhx[8:5],,,,,,,2bhx[4:1]/5bhx[4:1],,,1bhx[2:1]/4bhx[2:1],,,,,2/3,2/3,,,

{8}8b,,,,4/7,5/6,,5/2,4/3,,4/7,4/7,5/6,,8/7,,1/2,,{16}3,4,3,,2/5,,,,6,5,6,,7/4,,,,3,4,3,,2/5,,,,6,5,6,,7/4,,{8},2,2h[4:1],,4,4,3,3,6,6,5,5,7,7h[4:1],,4,,{16}6,5,6,,7/4,,,,3,4,3,,2/5,,,,6,5,6,,7/4,,,,3,4,3,,2/5,,,,{4}1b/6b,7/8,1-5[8:1],7-3[8:1],2-6[8:1],8,8-4[8:1],1-5[8:1],7-4[8:1],3,2,{8}1,1h[4:1],,4,4,,2/5,,7/4,,8,8,,5/7,5/7<4[8:1],,,,,5/2,4/3,,4/7,5/6,,5/2,5/2,4/3,,1/2,,8/7,,{16}6,5,6,,7/4,,,,3,4,3,,2/5,,,,6,5,6,,7/4,,,,3,4,3,,2/5,,{8},6,6h[4:1],,8,8,7,7,3,3,1,1,2,2h[4:1],,5,,{16}3,4,3,,2/5,,,,6,5,6,,7/4,,,,3,4,3,,2/5,,,,6,5,6,,7/4,,,,3b/8b,,,,1/2,,,,3,4,3,,6,5,6,,3,4,3,,6,5,6,,3,4,3,,6,5,6,,2,4,3,,7,5,6,,2,4,3,,7,5,6,,2,4,3,,7,5,6,,{8}6h[4:1],,8,8,,1b/7b,,3/5,3/5,,4/6,,2/8,2b/8b,,4/6,4/6,,3/4,,{16}2,1,2,,3/8,,,,7,8,7,,6/1,,,,2,1,2,,3/8,,,,7,8,7,,{8}6/1h[4:1],,3x>7[1:1],3bxp6[16:15]b,{4},,,,,,{8},E6,E5,E4,,A2/E3/B2,,A1/E1/B1,,A7/E7/B7,,A5/E5/B5,,Ch[32:43],E

MASTER

(188)
{2},,,{1}Ch[4:1],,E5,{4},,,{8}5,3,6q3[2:1],{4}2q7[2:1],,,C,,{8},
2,{4}1h[4:3],,,E1,{8},{2}5h[4:1]/7h[8:3],
3h[2:1]/5,{16}4x-7^6-2^3-8[1:1],,,3x,,,1hx[8:7],,{1},
{8}3/7h[4:1],,5,4h[8:1],5,6h[8:1],,,{4}45,,
3h[4:1]/5,7h[8:3],5h[4:1],{8},4h[8:3]/6,,5h[8:3],,3h[4:1],,,
{2}2h[4:1]/4h[8:1],{16},,,{48}7h,,,,,,,{6}6h,{8}5h,4h,3h,2h,,45,

{1}2b>1V35V71[4:11]/7b<8V64V28[4:11],,,{2},{8}2h[8:3]/7,,,{4}4,35,
{8}4/6h[8:3],,,{4}5,45,{8}3/4h[8:3],,,{4}2,57,{8}36,{4}3/6-1[8:1],2-5[8:1],8,
{8}6,5,4,3,5,4,3,2,3,4,5,3,4,5,6h[8:1],4,5,7h[8:1],5,4,6,2h[8:1],4,5,3h[8:1],5,6<4[2:1],4,
{4}5h[4:3],,,{8}6,57,,24,{16}E3,B3,B4,E5,E8,B7,B6,E6,
E2,B2,B3,E4,E7,B6,B5,E5,E2,E3,E4,E5,E8,E7,E6,E5,1,8,1,8,2,3,4,5,6,7,8,1,

{8}2h[16:3]/6h[16:3],,,35,,2,4,34,,,4,5,6,4,3h[16:3]/7h[16:3],,,46,4,7,5,56,,,5,3,4,5,
6p4[8:5],3,3,{1},{8}35,4,3,2p8[8:5],7,7,{2},{16}D6,,,E5,,,{8}D4,E8,E2,,
56,,5,4,5,3,5,2-8[8:1],5,,5,6,7,4,35,,3,4,3,5,3,6-4[8:1],3,,3,5,46,7h[4:1],,
5,5h[4:3],,{32}A6,D6,D5,A4,D4,A3,D3,A2,D2,A1,D1,A8,D8,A7,D7,A6,{8}D6,,24,3,57,6,
2/4h[8:3],,,5,4,{4}3/5<3[16:5],8h[4:1],{8},8,1,2x/6x,,
34,,4,5,4,6,4,7-4[8:1],4,,1,2,3,5,46,,6,5,6,4,6,3-8[8:1],6,,6,5,4x/1x,2,
3,4,{4}5/8h[4:1],6h[4:1],4h[4:1],{8}2,4,5,7,1,8,2q5[2:1],6,6,{2},{8}67,56,45,34,23,1x/8x,,
{16}2h[16:3],,,4h[16:3],,,{8}3,4,24,,{16}7h[16:3],,,5h[16:3],,,{8}6,5,75,,
{16}2h[16:3],,,3h[16:3],,,{8}4,45,56,,{16}7h[16:3],,,6h[16:3],,,{8}5,54,43,2,
1-6-3-8[4:3],8,{1}7h[4:3],{8}7,6,5-2-7-4[4:3],4,{4}3h[2:1],,,{8}1,1,{16}7,5,6,,3,4,3,4,{4}1,

2h[32:11]/8h[32:11],,{8},3x/7x,,4q5[4:7]/6,,,{2}5,8^3[4:1],{8},{4}1^6[4:1],,,{8}3,2x/4x,,
5/7-3[8:1],,,{4}2-8[8:1],6-4[8:1],2-6[8:1],{8}8,{4}8h[2:1],,
4^7[4:1],7^2[4:1],2^4[16:3],{8}6,6,5,,2,2,4,3,
{2}4h[2:1],E3,{8}6,6,5h[4:1],,E7,,45,45,,,{2}1^4[8:1]/8^5[8:1],B1/B5/Cf/E1/E5,{8},26,
7,8,1,2,3/7^2[8:1],,,3-7[8:1],,,6^3[8:1],,,1h[8:3],,,{4}8w4[8:1],
Cf,,6/2-5[8:1],2/8-4[8:1],8/1-5[8:1],1/7-4[8:1],37,{8}1,1,28,,
37,6,5,42,3,4,57,6,5,41,2,3,45,6,7/8-4[8:1],1,2h[4:1],,5,4,3,2/1-5[8:1],8,
{1024}7h[8:47],Cf,{512},{256},{128},{64},{32},{16},{4},{2},{24},,A1,D2,A2,D3,

{4}3hx[2:5],,,{1},,{4},,,E3,B4,{8}E6,C,{2}E2,{8}2h[4:7],,4,5,{1}6h[2:3],{4},,,
1^3v5^6[4:3]*^7v5^6[4:3],{1},{8}7,6,5,4,3^6[4:1],3,,,7p2[4:1],7,,,1p8[8:3],{2}1,{8}7,6,5,4,3,
24,24,,57,57,,15,24,,48,{2}5-1[8:1]/7,{8}78,16,,12,38,,56,48,,34,15,8,6,4,
2,2-5[8:1],,8,8-3[8:1],,6,6-1[8:1],,4,{2}4-1[8:1]*-7[8:1],
{8}8,8-4-2[4:1],,1,1-5-7[4:1],,8,8-4[8:1],,1,1,,{6}2b/E4,7b/E6,1b/8b,{2},
B2/B6/Cf/E3/E7,,E3h[1:2],E4h[2:3],E6h[1:1],E7h[2:1],{4}B4/B5/Cf,1bx>8[16:7]/8bx,,,{8},

{32}1bx/B7/B8/E8f,2x,3x-8[8:1],,{4},{32}7bx,6x,5x-1[8:1],,{4},{32}2bx,3x,4x>6[16:9],,{4},
5h[2:1],,,{8}3>5[2:1],5,{2}4h[2:1],{8},,2<4[32:13],4,{4}6>1[32:13],,,{8},
{32}8bx/B2/B1/E2f,7x,6x-1[8:1],,{4},{32}2bx,3x,4x-8[8:1],,{4},{32}7bx,6x,5x<3[16:9],,{4},
4h[2:1],,,{8}6<4[2:1],4,{2}5h[2:1],{8},,7>5[32:13],5,{1}3<1[2:1],
{32}2bx,3,4,5h[32:21],{4},{32}8bx,1,2,3-8[32:5],{2},
{32}7bx,6,5,4h[32:21],{4},{32}1bx,8,7,6-1[32:5],{8},,,5,6,
{32}7bx/1x,2,3,4,{4},{32}2bx/8x,7,6,5h[32:5],{8},,,12,38,,78,6^3[8:1]/1,,2,2-6[8:1],,

8h[8:11],{4},,4,4,4,4,{8}48,7,{4}4/6h[4:1],5,45,{8}34,2,{4}1h[4:1]/4,4,24,{8}35,4,
{4}5h[4:5]/6,6,6,6,6,6,6,{8}45,3,{4}2h[4:1]/4,4,45,{8}56,7,{4}8h[4:1]/5,5,57,{8}46,5,
{4}3qq8[1:1]/4h[2:1],,,5,6,7,8,1,2h[4:1],6h[4:1],{24}D4,A3,D3,A2,D2,A1,D1,A8,D8,A7,D7,A6,
{4}D6,3,4,{8}6,6,4,3/5h[4:1],,2,{2}2q7[16:3],{8}8,8h[4:1],,1x,{16}7,5,6,,4x/5x,,3,4,2,,
{1}1h[8:19]/5x<4>6[8:13],,{8}5h[8:9],{4},,2,3h[2:1],,4h[4:1],5p4[4:3],
{1}6h[4:3],{8}3-8[8:1],2,{2}1h[2:1],{8}8,7-4[8:1],2,3h[4:1],,5,26,{4},,
3/7h[4:1],5h[4:1],4h[4:1],{8}2,{4}26,
8/B4,7/E3,6/B4,5/E3,1/E7,2/B5,3/E7,4/B5,6/E1,2/E5,3bv8[8:1]/7b-4[8:1],
{1024}3b/7b,Cf,{512},{256},{128},{64},{32},{16},{8},{4},
2h[4:1]/6pp5[8:3],,{8}4,4,,3V14[8:3]*pp4[8:3],{4}3,,,6,
48,2pp3^2[4:1]/6pp7^6[4:1],,,15,7qq6^7[4:1]/3qq2^3[4:1],,,E3/E7,{8}4b/5bx,4bx>5[2:13]/5b,,

{1}Cf,,,,,,,{8}3/4h[8:3],,,5h[8:3],,,6,,7/5h[8:3],,,4h[8:3],,,
2-8[8:1],,,6-4[8:1],,,2-6[8:1],,8^5[8:1],,,4^1[8:1],,,7-3[8:1],,,2-6[8:1],,
8,8,7/5x,6,5,2/4x,3,4,5,6/2x,1,8,7x/3,6,5,4,3,{4}2x-5[8:1]/6x-1[8:1],,4/8w4[8:1]b,Cf,

{8}2b/6b,2b/6b,,7-3[8:1],8,7,2-6[8:1],1,2,8,{4}7-5[8:1]/5-1[8:1],75,2x/4x,
{8}8^3[8:1],7,8x,6,5^8[8:1],4,5x,3,2^5[8:1],1,2x,8,
{4}3-8[8:1]/7-4[8:1],3b/7b,{8},12,6,2,56,2,6,12,6,2,5h[4:1]/6,,
7<1[8:3],3,{2}3h[2:1],{8}8,8,5-1[8:1],6,{4}5b,2/8w4[8:1],8b,
{8}2>8[32:11],6,6bh[8:3],,,{32}1,2,3,4,{4}5/B7/B8/E8f,
2-6[8:1],12,7-3[8:1],78,1^4[8:1],14,8^5[8:1],58,
{8}12,3qq4[4:1]/7qq8[4:1],,37,,,15,,3h[4:1]/7,,4,
24,,56,5h[8:5]/7,,{32}A6,D6,D5,A4,D4,A3,D3,A2,D2,A1,D1,A8,

{8}A7/B7f/E8,,,2-6[8:1],1,2,7-3[8:1],8,7,1,{4}2-4[8:1]/4-8[8:1],24,7x/5x,
1^4[8:1]/8^5[8:1],A1/A8/D1f,2^5[8:1]/1^6[8:1],A2/A1/D2f,8^3[8:1]/7^4[8:1],A8/A7/D8f,
6-1[8:1]/2-5[8:1],6b/2b,{8},87,3,7,43,7,3,87,3,7,4h[4:1]/3,,
2>8[8:3],6,{2}6h[2:1],{8}1,1,4-8[8:1],3,{4}4bx,7/1w5[8:1],1bx,
{8}7<1[32:11],3,3bhx[8:3],,,{32}8,7,6,5,{4}4/B2/B1/E2f,
7-3[8:1],8-4[8:1],1-5[8:1],2-6[8:1],{8}8<1[8:3],8,{2}1,{8}78,,
2-5[8:1],4-8[8:1],2x,4x,,3x/7,3/7x,,6x/2,{4}6-1[8:1]/2x-5[8:1],
2b/6b,{8}37,3^6[8:1]/7,,8,8,5-1[8:1],5,7^2[8:1],7,3^6[8:1],3,1,1,28,
3b/7b,,45,{16}6,5,6,,47,,3,4,3,,25,,7,8,7,,16,,2,1,{8}2,3/8^1-4[4:9],

{1}4^5-8[8:17],,{2},{8},E2,E3,E4,E6,E7,E8,
(34.1818){1}2-6[44:1]/Ch[4:1],,,,E

Re:MASTER


  • 追加しました。修正等ありましたらよろしくお願いします。 -- けもがみ (2025-08-31 05:24:51)
  • EXPERT譜面を追加しました。修正等ありましたらよろしくお願いします。 -- Sugar (2026-02-25 15:45:46)
  • BASIC譜面&ADVANCED譜面を追加しました。修正等ありましたらよろしくお願いします。 -- Sugar (2026-03-18 21:20:43)
名前:
コメント:

タグ:

+ タグ編集
  • タグ:
最終更新:2026年04月11日 19:52