| アーティスト |
Ardolf vs. Daily天利 (原曲: nm-y & Kry.exe) |
BASIC
ADVANCED
EXPERT
MASTER
(112.5)
{1}4p1[8:5]/5^8[8:5],Chf[1:1],
{4}E1,E8,{16}B6/E7,,,D5/E5,,,3,3,2h[16:3],,,4,{8}4,35,3h[4:1]/5h[4:1],,,24,
3h[8:3],{16},E5,{8}E6,7,6h[16:11],,B5/B6,,4h[16:3],,,5,5,{16},4,,,3,,
{2}3^6[4:1],7p2[4:1],1v8[4:1],7^4[4:1],3v2[4:1],1^6[4:1],5>1[8:3],Chf[2:1],
{8}1x,,,28,2h[8:3]/8,,,4h[4:1],,3h[4:1],,4,25,4,2,1,
8h[4:1],,,78,16,2h[8:1]/5,{32}4,3,4,,5,4,5h[16:3],,{8},3,4/5-1^4-6[8:3],6,{2}7,
{8}8h[2:1],,,5,2h[8:3],,,4h[4:1],,3h[4:1],,4,25,3,12,18,
7h[4:1]/8,,8,1,2h[4:1]/8,1,{32}8,1,8,,7,8,7h[16:3],,{8},5,{32}6,5,6,,3,4,3,,{8}2h[4:1]/4-8[4:1],3,,,
{4}4bhx[4:3],8,7,{16}6,,5,5,{4}4/6bhx[8:7],5,{16}2,2,,1,{8}1h[8:1],,
{8}2bh[4:1]/5,5,{24}4,3,4,3,4,3,{8}7bh[4:1],4,{24}5,6,5,6,5,6,
{16}4,4,35,35,2h[32:1]/6h[32:1],2h[32:1]/6h[32:1],1h[64:1]/7h[32:1],1h[32:1]/7h[64:1],
{4}8hx[4:1],{16}1-4[16:1]*-6[16:1],28,28,,
(225)
{4}1bx,3h[8:1]/7h[8:1],1h[8:1]/5h[8:1],4h[8:1]/7h[8:1],2h[8:1]/E5,6h[8:1]/E4,3h[8:1]/E6,{8}28,28,
3b/7b,,{12}6,4,5,3,5,4,7,5,6,3,3,5,2,2,6,1,1,7,{4}8-4[8:1],
1b/8b,6h[8:1]/2h[8:1],8h[8:1]/4h[8:1],5h[8:1]/1h[8:1],7h[8:1]/E5,3h[8:1]/E6,6h[8:1]/E4,{8}28,28,
3b/7b,,{12}2,4,3,7,5,6,2,1,3,{8}8^5[8:1],,1,2,34,34,{4}2b/5b,
1-5[8:1]/8,{8}7,7,7/4-8[8:1],,5,5,5-1[8:1]b/1,,2h[4:1],,{12}8,7,6,53,2,1,
{8}7-4[8:1],,2,2,2-6[8:1]/5,,8b,8b,8b-5[8:1]b,,4b-1[8:1]b,,7b,6b,5b/2bx,,
3,{16}3,4,2h[16:3],,,1,{8}3,47,5h[4:1]/6,,6,6,{16}4h[16:3]/7,,,6,{8}5<1[4:1],3,3,,
{1}Cf,{16}A1,E2,E3,A3,A7,E7,E6,A5,3x,4x,3x,,{4}2bx-6[8:1]/5bx,
7-1[8:1],5-3[8:1],6-8[8:1],2-4[8:1],1-7[8:1],5-3[8:1],6,2x^5[4:1]/8,
5^8[4:1],8^3[4:1],3,5h[4:1],{16}4,6,4,6,{8}4,7,2,5,{4}1/4h[4:1],
3-1[8:1],5-7[8:1],4-2[8:1],8-6[8:1],1-3[8:1],5-7[8:1],4h[4:1],8x^5[4:1],
5^2[4:1],2^7[4:1],7,5,{8}46,46,{4}4-2[8:1]/6-4[8:1],,1x,
{8}25,2,25,2,24,2,24,2,23,2,21,2,{4}3h[8:1]/4h[8:1],4h[8:1]/5h[8:1],
{8}65,6,65,6,68,6,68,6,63,6,1b/5b,,38,47,5b/6b,,
47,4,41,4,48,4,35,35,2-4[8:1],2-8[8:1],,,7-5[8:1],7-1[8:1],,,
4x,4hx[8:1],1,2,3x,3hx[8:1],8,,{12}7,5,6,2,4,3,{16}8b,,,1b/7b,,,3b/4bh[2:3],,{1},,
{16}3,4,3,,6,5,6,,1,8,{8}1,34,45,56,47,47,38,38,{16}2,1,2,1,2,1,2,3,4,5,6,7,8,1,2,3,4,5,6,7,8,1,
{1}2bxq5q8-3[4:13]/Cf,,,,{4}3h[1:1]/5,,,B3/B4,6h[1:1],,,B5/B6,{1}Ch[1:1],{4}8,8^3[4:1]*^5[4:1],{2},
2bhx[2:1]/Cf,1h[2:1],8h[2:1],{4}7,{16}6,5,6,5,{2}6bhx[2:1],8h[2:1],{8}7,78,,45,45,,{16}2,4,2,4,
{4}1b,1,1/E7,1,8b/E3,8,8/C,8,1bh[8:1]/8bh[8:1],{16}1,8,1,8,2,7,2,7,3,6,3,6,
{1}4V68V25[8:5],Ch[1:2]/B6/B7/E7f,,{4},,,1-5[8:1]b/8,
1b/6-1[8:1]b,6/3-8[8:1]b,3/7-3[8:1]b,7/2-6[8:1]b,2/8-4[8:1]b,8/5^2[8:1]b,5/7V53[4:1],{8}1x,1x,
{4}2-6[8:1]b,2/4-8[8:1]b,4/3^6[8:1]b,31,{8}78,16,{4}2/5-1[8:1]b,4b/5b,3b/8b,
1/2-6[8:1]b,2/4^7[8:1]b,4/1V35[4:1],{8}8x,8x,{4}7-3[8:1]b,7/5-1[8:1]b,56,{16}28,,28,37,
{4}4b-1[8:1]*-7[8:1]/6b,4b,2b-5[8:1]/6b-3[8:1],2b/6b,{2}1/7h[2:1],{16}4,6,4,6,3,5,3,5,
{8}2b-4[8:1],,2-6[8:1],6,2-8[8:1],8,2,5x,6x-4[8:1],2,6-1[8:1],1,6,3,2/8x,7,
3-5[8:1],6-8[8:1],3,6,2-6[8:1],1-7[8:1],2,1,5b,5b,3b/7b,,2b,13,48,{16}7,5,
6h[8:1],,4,5h[8:1],,3,{8}4bhx[4:1],,1,1,25,34,45,56,7^5[8:1],,{16}8,1,{4}2h[4:1],
{16}4,3,4,3,5,4,5,4,6,5,6,5,7,4,8,3,{8}1x,2-6-3[4:1]/8,,1,{4}1^4[8:1]*^6[8:1],1x,
3bx-8[8:1]/7bx-4[8:1],37,{8}1^4[8:1],5,16,,7^4[8:1],8,17,,2^5[8:1],1,28,,
7-5[8:1],8-4[8:1],7,8,1-5[8:1],2-4[8:1],1>7[8:3],2,{2}1bx,{8}8,8,17,,
35,{16}2,4,2,4,{8}2,1,8,3h[8:1]/7h[8:1],,{16}6,4,6,4,{8}6,37,2/8h[4:1],{32}E3,B3,B4,E5,{8}A5f,,
1,1,1,{32}7b/8b,1x,2x,3x,4hx[8:1],,,,1b,8x,7x,6x,{8}5x,28,
{16}1h[8:1]/7h[8:1],,,2h[8:1]/6h[8:1],,,{8}35,3^8[8:1]b/5,,Cf,,
7-3[8:1],7,2-5[8:1],2,1,1,{16}48,7,6,5,{8}2-5[8:1],2,7-3[8:1],7,8,8,{16}15,2,3,4,
{8}7-4[8:1],7,1,1,2-5[8:1],2,1<3[8:3]b,1,{2}Cf,{16}1h[8:1],,,2h[8:1]/8h[8:1],,,37,,
6,5,{8}6,7^4[8:1],7,1,1,2,2,{16}3,4,{8}3,2^5[8:1],2,8,8,7bx/6bx,,
{16}3,4,3,4,3,,2,,6,5,6,5,6,,7,,{12}1,1,1,8,8,8,{8}1b/7b,3b/5b,2b/6b,,
1-5[8:1],1,8,8,{16}4,3,2,1,7,6,5,4,{8}8-4[8:1],8,6-1[8:1],6,{16}2,3,4,5,8,7,6,5,
{4}1b-5[8:1]b/4b-7[8:1]b,1b/4b,{32}E5,E4,E3,E2,E1,E8,E7,E6,D5,D4,D3,D2,D1,D8,D7,D6,
{4}A4/B4f/D5/E5,{16}2,1,2,1,3,8,4,7,{8}5b/6b,,
3^8[16:3],3,{16}7,6,5,4,7,6,5,4,{8}3h[8:1]/7h[8:1],,
6^1[16:3],6,{16}2,3,4,5,2,3,4,5,{8}6h[8:1]/2h[8:1],,
48,{16}7,5,6h[16:1],,3,4,2h[16:1],,6,4,8h[16:1],,1,7,
2,6,3,5,4,5,4,5,{32}4,3,2,1,8,7,6,5-8[32:25],4z8[4:3],3,2,1,,,,,{1},
1bx<4[4:7]b/7bx,,{4}7,7,{8}28,28,28,28,
1h[16:1]/7h[16:1],1h[16:1]/7h[16:1],1h[16:1]/7h[16:1],1h[16:1]/7h[16:1],
{16}8z4[16:3]b*-5[16:3]b,8,8,{1}8,,,,E
Re:MASTER
- 追加しました。修正等ありましたらよろしくお願いします。 -- けもがみ (2025-09-07 22:46:10)
最終更新:2026年03月30日 21:45