アットウィキロゴ

殿ッ!?ご乱心!?

アーティスト Shu feat. 天羽しろっぷ

BPM BASIC ADVANCED EXPERT MASTER Re:MASTER
200 6 8 12+ 14 -

EXPERT MASTER Re:MASTER
譜面制作者 はっぴー ぴちネコ -

BASIC


ADVANCED


EXPERT


MASTER

(200)
{2}Ch[4:3],{24},,D6,A5,D5,A4,{4}D4,,,2^5[2:1],,,7^4[2:1],,,2q7[2:1],,,{2}8h[4:5],,,{8}7,6,
{4}5,B4/B6,E3/E8,E1/E2,A1/A7,A3/A5,2h[4:1]/6h[4:1],,15,{1}1bpp8[4:3]/5bv7-4[4:5]b,{4},,1b,

{1}2h[4:3]/4h[4:3],5h[4:3]/7h[4:3],2h[4:3]/6pp3[2:1],{4}1b/5b,,,{16}1,2,3,4,
{4}5/6-8[8:1],5-1[8:1],6-1[8:1],3^5[8:1],3^1[8:1]/6h[8:1],3/6h[8:1],{8}3,4,{4}5-7^1-3[8:3],
4h[8:3],,{8}4-2[8:1]*-6[8:1],4,,,7-5v4-2[2:1]b,8,{4}1,8b,8b,
17,4h[4:1],{8}6-4[8:1],4-7[8:1],6,3,2-8[8:1],8-3[8:1],2,6,5w1[8:1]b,5,{4},
37,1b/5,{8}7,2,8-3[8:1],1-6[8:1],8x^5[8:1],1x^4[8:1],8,1,{2}8bw4[8:1],
{4}17,{16}12,,3,4,2,,5,4,{8}6,7,78,1,78,{16}6,5,7,,4,5,{8}3,2,
18,7,18,2,38,{16}7,5,6,4,5,3,{8}4,35,26,17,{4}8p4[8:1]*q4[8:1],8x,
{8}78,1,78,{16}6,5,7,,4,5,{8}3,2,2h[8:1],1,7h[8:1],8,3,{16}3,4,1,,6,5,
{4}8-4[8:1],4x/8x,{8}37,26,{4}1-6[8:1]/5,1-3[8:1]/5-3[8:1],1-7[8:1]/5-7[8:1],15,1b/5b,

2h[4:1],{8}4,4,3h[4:1],,5,5,4,4,,26,,1,{4}1,
6-1[4:1],1-4[4:1],4^7[4:1],7-3[4:1],3^8[4:1],4,5,68,
7h[4:1],{8}5,5,6h[4:1],,4,4,5,5,,37,,2,{4}2V47[4:1],
7V52[4:1],2,8h[4:1],2h[4:1],{8}4h[8:3],,,{16}3,5,{2}8b,

{6}7-5[4:1],7,,1-7[4:1],1,,3-1[4:1],3,,5-3[4:1],5,,
6,6h[3:1],E1,2,2h[3:1],B4,5,5h[3:1],E8,1,1h[3:1],B3,
4-6[4:1],2,2,1-3[4:1],7,7,6-8[4:1],4,4,3-5[4:1],1,1,
8h[2:1],A1,A2,4h[2:1],A5,A6,{8}7,7,3,3,{4}46,2b/8b,
{8}3h[16:1],3h[16:1],4h[16:1],4h[16:1],5h[16:1],5h[16:1],6h[16:1],6h[16:1],
7h[16:1],7h[16:1],5h[16:1]/6h[16:1],5h[16:1]/6h[16:1],
4h[16:1]/5h[16:1],4h[16:1]/5h[16:1],3h[16:1]/4h[16:1],3h[16:1]/4h[16:1],
{16}2,2bh[16:3],,,4,4bh[16:3],,,5,5bh[16:3],,,7,7bh[16:3],,,{1}4^3-6-1[1:1]*^5-2-7[1:1],{4},,,

(230)
1b^4[4:1],4^7[4:1],7^2[4:1],2^5[4:1],5^8[4:1]b,8^3[4:1]b,3^6[4:1]b,6,8,
{8}7,7,5,6,3,4,{4}1^4[8:1]b*^6[8:1]b,1b-5[8:1]b,1b,2b/8b,{8}6x^1[8:1],6,
3,,2x^5[8:1],2,7,,6xV82[4:1],6,{4}2<6[4:1],4,4h[4:1],{8}8b,5,
7,4,7,3,8-4[8:1],2-6[8:1],8,2,,5b,,2b/7b,2b/7b,,1,1,
25,{16}3,4,3,,47,,6,5,6,,{4}6bx^3^6[8:3]/7bxp2q7[8:3],,,8hx[2:1],4qq4[4:1],
4pp4[4:1],,8,{8}6pp5[2:1]b,4qq5[8:3]b,{4},,,{8}5,5,
A4f/B4/D4/E4,,5,A6f/B6/D7/E7,,5,5,,A3/A7/B3/B7/E4/E7,,28,,{16}1b,1b,1b,1b,{4}1b,
{16}28,,7,,6,5,6,5,7,,82,,3,4,3,4,{4}2b-5[8:1],2/8b-3[8:1],8/6b-1[8:1],6/4bV63-7-2-8^5-1^4[4:7],
{1}4b/5h[4:7],,{8}5,5,{16}4,6,4,6,3,7,3,7,2,8,2,8,{48}1b,B1,C,B5,A5f,,{8},{4},,3-8[8:1],

3x,4-8[8:1],4x,3-8[8:1],3x/4x,6,{24}78,,,7,6,5,{8}4,2,
4x,4,{4}3-8[8:1],3x/4x,4-8[8:1],1hx[4:1],{8},7,6,5,{4}3-8[8:1]/4,
4x-8[8:1],3x^8[8:1],4xq8[8:1],3x-8[8:1],4x-8[8:1],3x,{24}1x/2x,,,2,3,4,{8}5,7,
4x/6x,46,3x-8[8:1],3,4,4,{4}4>5[2:1]b*<3[2:1]b,,,,8b,
{2}3/5pp4[2:1],2h[2:1],{8}B4,E3,B1,D2,,E7,B5,D6,
{2}4qq5[2:1],{4}6,7,8h[4:1],{8}A1/B1,A7/B7,A3/B3,A5/B5,D3/E3,D7/E7,{2}Ch[4:3],{24},,D6,A5,D5,A4,{4}D4,
{16}1h[16:1]/8h[16:1],,,5h[16:1]/6h[16:1],,,2h[16:1]/3h[16:1],,,
7h[16:1]/8h[16:1],,,4h[16:1]/6h[16:1],,,1h[16:1]/3h[16:1],,,
6h[16:1]/8h[16:1],,,3h[16:1]/7h[16:1],,,{2}2bh[8:3]/4bh[8:3],
{16}15,2,3,4,51,6,7,8,15,2,3,4,{4}5-2^4[2:1]/1-6^8[2:1],{1},

2-5[4:3],{2},6,{1}7-3[4:3],{2},2,{1}1^3[16:5],6^8[16:5],{2}A3/A4/A5/A6/B4/B5/D4/D5/D6/E4/E5/E6,
{32}8bx,7bx,6bx,5bx,4bx,3bx,2bx,1bx,8bx,7bx,6bx,5bx,4bx,3bx,2bx,1bx,{2}8bx,{8},

(200)
,,,{32}38,47,5h[16:5]/6h[16:5],,{8},{4},,,{32}16,25,3h[16:5]/4h[16:5],,{8},{4},

(250)
,1b>5[4:1],5b<1[4:1],1x>1[2:1],Cf,1x>1[2:1]b,Cf,1x,Cf,1x,
{8}7,7,8,5,1,4,{4}2^5[8:1]b*^7[8:1]b,2b-6[8:1]b,2b,4b/8b,{8}6x^3[8:1],6,
8,1,2x^7[8:1],2,4,5,6xV82[4:1],6,{4}2<6[4:1],4,4h[4:1],{8}8b,4,
3b/5b,35,2b/6b,26,1b/7b,17,8b,8,{32}81,2,3,4,5,6,7,8,1,2,3,4,5,6,7,8,
{4}1h[4:1]/5bhx[4:1],{48}E6,B6,B7,E8f,,,{8},

(300)
2,2-6[8:1],,1b/2b,,8,8-4[8:1],,7b/8b,,6,6-2[8:1],,5b/6b,,4,4-8[8:1],,3b/4b,,
12,1-5[8:1]/2-5[8:1],,{2}1b/2b,4h[32:5]/5h[32:5],{8},

(250)
{12}2bx,1,2,1,2,1,{24}2x,3x,4x,5x,,,{12}7bx,8,7,8,7,8,{24}7x,6x,5x,4x,,,
{12}2bx,1,2,1,2,1,3,8,3,8,3,8,4,7,4,7,4,7,5,6,5,6,5,6,
{24}4,3,2,1,8,7,6,5,4,3,2,1,{32}8,7,6,5,4,3,2,1,{4}8-4[8:1]b,5bh[2:3]/8b,{8},{1},,
{8}7,,48,{96}4b/8b/D8/D4,{768}A7,A3,{384},{192},{768}D7,D3,{384},{192},
{768}A6,A2,{384},{192},{768}D6,D2,{384},{192},{768}A5,A1f,{384},{192},{1},,,,E

Re:MASTER


  • 追加しました。修正等ありましたらよろしくお願いします。 -- けもがみ (2025-09-22 04:52:15)
名前:
コメント:

タグ:

+ タグ編集
  • タグ:
最終更新:2026年03月30日 21:58