アットウィキロゴ

Hurtling Boys

アーティスト さだきち イシカダス「太鼓の達人」より

BPM BASIC ADVANCED EXPERT MASTER Re:MASTER
195 5 8 12+ 14+ -

EXPERT MASTER Re:MASTER
譜面制作者 サファ太 鳩ホルダー -

BASIC


ADVANCED


EXPERT


MASTER

(195)
{8}5,,46,,,3,2h[16:1],4,,3,5,4,,6,5,7h[16:1],
5,,46,,3,5,2h[16:1],4,,35,,,{16}3x/4,,,4x/5,,,{8}5x/6-3[8:1],,,
{2}1bhx[2:1],4h[16:1],35,{8}2,2,3,3,4,4,5,5,6,6,7h[8:5],{2},{16}8,6,8,6,8,6,

{8}1b-6[8:1],5h[16:1],1,5h[16:1],7-3[8:1],5h[16:1],7,5h[16:1],
1^4[8:1],5h[16:1],1,5h[16:1],3,45,6,57,
8-3[8:1],4h[16:1],8,4h[16:1],2-6[8:1],4h[16:1],2,4h[16:1],7,64,3,24,{16}1,5,1,5,{8}1,6,
1-6[8:1],6h[16:1],1,5h[16:1],7-3[8:1],4h[16:1],7,5h[16:1],
1^4[8:1],6h[16:1],1,5h[16:1],3,45,{16}2,6,2,6,
{8}3,3h[8:1],1,1h[8:1],8,8h[8:1],6,6h[8:1],{2}3h[2:1],{16}1,2,1,2,1,3,1,3,

{8}8b-3[8:1],4h[16:1],8,4h[16:1],2-7[8:1],4h[16:1],2,4h[16:1],
5^8[8:1],4h[16:1],5,4h[16:1],7,46,3,24,
1-6[8:1],5h[16:1],1,5h[16:1],7^2[8:1],5h[16:1],7,5h[16:1],4,35,6,57,{16}4-8[8:1],8,4,8,{8}4,,
1hx[4:1]/7h[4:1],,,5h[4:1]/7hx[4:1],,,3h[4:1]/5hx[4:1],,,1h[4:1]/3hx[4:1],,,{4}1/7x,3/5x,
{16}46,,,46,,{12}3,7,2,{16}8,2,8,{24}3,4,5,6,7,8,{2}1s5[4:1],{16}6x,,,3/4x,,,{8}1/2x,

3b/8b,,25,{16}6,5,6,,4/7x,,3,4,3,,2/6x,,7,8,{8}7,2/6x,3,3/7x,{16}2,1,{8}2,
3x/8x,,47,{16}3,4,3,,5x/2,,6,5,6,,7x/3,,2,1,{8}2,3/4x,2,1/8x,7,6x/2,
6/2x,,{16}3,4,2,4,1,,7x,8,6,8,5,,2x,4,,4,3,,7x,5,,5,6x,,4,5,4,,
6x,5,7,5,8,,2,1,3,1,4x,,6,5,6,,1,8,1,,27,,3x,4,,6,{8}5x,47,3/8x,
3bx/8b,,47,{16}6,5,6,7,6x,,58,,1,4,2x,4,3x,,25,,3,4,3,2,3x,,14,,8,5,
7x,5,6x,,47,,{4}4V68[4:1]/7,8V24[4:1],4<8[4:1],8>8[32:11]b,B4/B5/E5f,{8},{32}1,2,3,4,5,6,7,8,
{8}1b,,,A2/E2,,,A8/E8,,,A4/E4,,,{4}E7,E6,E5,E4,E3,{8}1,1,7,7,2,2,{16}8,1,8,1,{4}2-6[8:1]/7-5[8:1],

2b^5[8:1]/7b^2[8:1],7/2V86[16:3],{8}4,{4}4-8[8:1],4/7-3[8:1],71,{16}15,,6,8,7,2,4,3,6,5,
{4}7p3[8:1],7^5-1[4:1]/8,{8}1^3-7[4:1],{4}1,8w4[8:1],8,{8}26,{4}3v8[8:1]/7-4[8:1],37,
{16}1^6[8:1],5,2,4,{8}1V35[16:3],,15,{4}7-3[8:1],7^4[8:1]/4-8[8:1],
74,{16}15,,8h[8:1],,6,1h[8:1],,7,2h[8:1],,
1h[8:1],,3,8h[8:1],,2,7h[8:1],,8h[8:1],,6,1h[8:1],,5,2,4,
3,4,3,,6,5,6,5,{4}8,7b-3[8:1]/2b-4[8:1],
7^4[8:1]/2^7[8:1],2/7V13[16:3],{8}5,{4}5-1[8:1],5/2-6[8:1],28,{16}84,,3,1,2,7,5,6,3,4,
{4}2q6[8:1],2^4-8[4:1]/1,{8}8^6-2[4:1],{4}8,1w5[8:1],1,{8}73,6-3[8:1],1-5[8:1],6,1,
8b<3[4:1],,,1,1-5[8:1],,5,7-4[8:1],,4,{4}3h[4:1],6,26,
{8}35,35,26,26,{24}7,6,5,3,2,1,7,6,5,3,2,1,
7,8,7,{16}8,6,1,{24}4,3,4,{16}3,5,2,{24}7,8,1,2-6[8:1]b,3,4,,,,

{32}2bx<3[4:13],B2f,C,B6,A6,,,,{4},,,{1},,,
{2}3h[2:1],4h[2:1],5h[2:1],{4}6,56,3,34,{8}5,5,3,3,
{16}A6,E6,E5,A4,E7,B6,B4,E4,A7,B7,B3,A3,{8}1b,,

2-4[8:1],4-6[8:1],6-8[8:1],8-2[8:1],,4q8[8:1],4,3,,2q6[8:1],2,1,,7,5,4,
2^8[8:1],8^6[8:1],6^4[8:1],4^2[8:1],,8V27-3-6-4[4:3],8h[8:7],,{4},,,{8}3-8[8:1],3,
7p3[8:1],7,1^6[8:1],1,5-1[8:1],5,4,4h[4:1],,{16}8,3,7,2,6,1,5,2,6,3,7,4,{8}8,
48,{24}E8,E7,E6,{8}E5,17,{24}D2,D3,D4,{8}D5,8,{32}8,17,26,35,{2}4V27[4:1]*V61[4:1],{8},2x/6x,2x/6x,,

8bx-2^3[8:1],2,8-5[8:1]/4x,5,8-3[8:1]/4x,2,8-6^5[8:1]/4x,5,
8^3[8:1]/4x,2,8-4[8:1]/4x,5,8/2hx[4:1],,{16}5x,5,3,4,
{8}1x^8-6[8:1],6,1-4[8:1]/5x,4,1-6[8:1]/5x,7,1^2-4[8:1]/5x,4x,
1^6[8:1]/5x,7,1-5[8:1]/5x,4,1/7hx[4:1],,{16}4x,3,2,1,
{8}7x-3[8:1]/8,6,7/1x-6[8:1],2,1/4x-8[8:1],5,4/3x-7[8:1],2,
3/6x-1[8:1],5,6/4x-8[8:1],5,4/8x,7h[16:1],{16}1x,2,3,4,
{8}5V31[16:3],5,{16}8,7,6,5,{8}4V68[16:3],4,{16}1,2,3,4,{8}5h[4:1],,1,{4}3b/7b,1b/5b,2b/6b,

{16}7x,4,5,4,8x,3,4,3,1x,4,5,4,8x,5,6,5,7x,4,5,4,8x,3,7,2,6,1,{24}7,8,7,{8}8,
16,{16}2x,5,4,5,1x,6,5,6,8x,5,4,5,1x,4,3,4,2x,5,4,5,1x,6,2,7,3,8,{24}2,1,2,{8}1,
83,{24}12,38,47,{4}5h[8:1]/6h[8:1],{16}7,8,7,,16,,{24}87,61,52,
{4}4h[8:1]/3h[8:1],{16}2,1,3h[8:1],,7,8,6h[8:1],,{24}7,8,1,2,3,4,
{16}5h[8:1]/6h[8:1],,,7h[8:1]/8h[8:1],,,34,,3h[8:1]/4h[8:1],,,1h[8:1]/2h[8:1],,,56,,
7b,5b,1b,3b,{4}6bh[4:1],{24}5,4,3,2,1,8,{32}6,5,4,3,2,1,8,7,{1}6b/2bw6[4:7],,,,E

Re:MASTER


  • 追加しました。修正等ありましたらよろしくお願いします。 -- けもがみ (2025-09-28 09:34:24)
名前:
コメント:

タグ:

+ タグ編集
  • タグ:
最終更新:2026年10月01日 19:35